[其它] 亨利和我 Henry.and.Me.2014.1080p.WEBRip.x264-RARBG 1.28GB

[复制链接]
蓝鸟 发表于 2019-12-12 18:26:32 | 显示全部楼层 |阅读模式 打印 上一主题 下一主题


译  名 亨利和我 / Henry and Me
片  名 Henry & Me
年  代 2014
产  地 美国
类  别 动画 / 家庭
语  言 英语
上映日期 2014-08-18
IMDb评分  6.2/10 from 138 users
IMDb链接  https://www.imdb.com/title/tt1460798
豆瓣评分 0/10 from 0 users
豆瓣链接 https://movie.douban.com/subject/3813775/
片  长 67分钟
导  演 Barrett Esposito
编  剧 大卫·I·斯特恩 David I. Stern
主  演 理查·基尔 Richard Gere
       丹尼·爱罗 Danny Aiello
       路易斯·古兹曼 Luis Guzmán
       查兹·帕尔明特瑞 Chazz Palminteri
       辛迪·劳帕 Cyndi Lauper
       Lucie Arnaz
       保罗·西蒙 Paul Simon
       Nick Swisher
       杰森·哈里斯 Jason Harris
       史蒂夫·奥斯汀 Steve Austin
       Reggie Jackson
       Joseph Gian
       Yogi Berra
       Bob Sheppard
       Michael Kay


标  签 动画 | 美国

简  介  

  A young boy, Jack, is battling and undergoing treatment for cancer. A young girl helps Jack find his own unique, Yankee-filled fantasy. Jack travels through Yankee history from the past to the present with Henry as his guide.

获奖情况  

  第42届动画安妮奖(2015)
  最佳配音(提名) 辛迪·劳帕


该资源信息参数
  1. Video
  2. ID                                       : 1
  3. Format                                   : AVC
  4. Format/Info                              : Advanced Video Codec
  5. Format profile                           : High@L4
  6. Format settings                          : CABAC / 4 Ref Frames
  7. Format settings, CABAC                   : Yes
  8. Format settings, Reference frames        : 4 frames
  9. Codec ID                                 : avc1
  10. Codec ID/Info                            : Advanced Video Coding
  11. Duration                                 : 1 h 6 min
  12. Bit rate                                 : 2 500 kb/s
  13. Width                                    : 1 920 pixels
  14. Height                                   : 1 080 pixels
  15. Display aspect ratio                     : 16:9
  16. Frame rate mode                          : Constant
  17. Frame rate                               : 23.976 (23976/1000) FPS
  18. Color space                              : YUV
  19. Chroma subsampling                       : 4:2:0
  20. Bit depth                                : 8 bits
  21. Scan type                                : Progressive
  22. Bits/(Pixel*Frame)                       : 0.050
  23. Stream size                              : 1.17 GiB (92%)
  24. Writing library                          : x264 core 152 r2851M ba24899
  25. Encoding settings                        : cabac=1 / ref=4 / deblock=1:-1:-1 / analyse=0x3:0x113 / me=umh / subme=9 / psy=1 / psy_rd=1.00:0.15 / mixed_ref=1 / me_range=24 / chroma_me=1 / trellis=2 / 8x8dct=1 / cqm=0 / deadzone=21,11 / fast_pskip=1 / chroma_qp_offset=-3 / threads=16 / lookahead_threads=4 / sliced_threads=0 / nr=0 / decimate=1 / interlaced=0 / bluray_compat=0 / constrained_intra=0 / bframes=3 / b_pyramid=2 / b_adapt=2 / b_bias=0 / direct=3 / weightb=1 / open_gop=0 / weightp=2 / keyint=250 / keyint_min=25 / scenecut=40 / intra_refresh=0 / rc_lookahead=50 / rc=2pass / mbtree=1 / bitrate=2500 / ratetol=1.0 / qcomp=0.60 / qpmin=0 / qpmax=69 / qpstep=4 / cplxblur=20.0 / qblur=0.5 / vbv_maxrate=31250 / vbv_bufsize=31250 / nal_hrd=none / filler=0 / ip_ratio=1.40 / aq=3:1.00
  26. Encoded date                             : UTC 2019-12-06 23:46:17
  27. Tagged date                              : UTC 2019-12-06 23:46:17
  28. Codec configuration box                  : avcC

  29. Audio
  30. ID                                       : 2
  31. Format                                   : AAC LC
  32. Format/Info                              : Advanced Audio Codec Low Complexity
  33. Codec ID                                 : mp4a-40-2
  34. Duration                                 : 1 h 6 min
  35. Duration_LastFrame                       : -11 ms
  36. Bit rate mode                            : Constant
  37. Bit rate                                 : 224 kb/s
  38. Channel(s)                               : 6 channels
  39. Channel layout                           : C L R Ls Rs LFE
  40. Sampling rate                            : 48.0 kHz
  41. Frame rate                               : 46.875 FPS (1024 SPF)
  42. Compression mode                         : Lossy
  43. Stream size                              : 107 MiB (8%)
  44. Language                                 : English
  45. Default                                  : Yes
  46. Alternate group                          : 1
  47. Encoded date                             : UTC 2019-12-06 23:46:17
  48. Tagged date                              : UTC 2019-12-06 23:46:17
复制代码


精彩剧照




蓝光高清网提示您 点击下方附件名称 马上开始下载

Henry.and.Me.2014.1080p.WEBRip.x264-RARBG.torrent 
         (13.36 KB    阅读权限: 0)
加入蓝光高清网VIP会员  无限制下载本站所有资源---点这里

资源下载、资源播放、字幕使用、无法下载等常见问题---点这里
回复

使用道具 举报

精彩评论85

清溪 发表于 2019-12-12 20:10:35 | 显示全部楼层
感谢楼主的无私分享!
回复

使用道具 举报

xiaofangfang 发表于 2019-12-12 20:31:06 | 显示全部楼层
学习了,谢谢分享、、、
回复

使用道具 举报

wqaiy 发表于 2019-12-12 20:56:48 | 显示全部楼层
刷一波高清币,嘿嘿
回复

使用道具 举报

liubin1975 发表于 2019-12-12 21:01:49 | 显示全部楼层
不错,支持下楼主
回复

使用道具 举报

itlan86 发表于 2019-12-12 21:06:51 | 显示全部楼层
路过,学习下
回复

使用道具 举报

shanji321 发表于 2019-12-12 21:59:09 | 显示全部楼层
找了好久 终于找到了  谢谢分享
回复

使用道具 举报

yaxingit88 发表于 2019-12-12 22:40:04 | 显示全部楼层
终于找到了  谢谢分享
回复

使用道具 举报

板斧 发表于 2019-12-13 07:07:30 | 显示全部楼层
楼主发贴辛苦了,谢谢楼主分享!
回复

使用道具 举报

58202801 发表于 2019-12-13 07:27:51 | 显示全部楼层
不管怎么说就是支持,感谢版主的无私付出
回复

使用道具 举报

您需要登录后才可以回帖 登录 | 立即注册

本版积分规则

关注0

粉丝1

帖子86464

发布主题
最新电影 论坛
本期活动
联系我们
点击这里联系客服

服务时间:
周一到周日8:00-23:30

  • 打开微信扫一扫
    关注公众号

  • 手机QQ扫一扫
    添加客服

手机版蓝光高清网 |网站地图

Powered by Discuz! X3.4 Licensed  © 2001-2013 Comsenz Inc.