中国机长
4K 
6.9
  • 年代: 2019年
  • 国家/地区: 中国大陆
  • 类型: 剧情 灾难 
  • 导演: 刘伟强
  • 音轨: LPCM 
  • 时长: 111分钟
  • 主演:张涵予 / 欧豪 / 杜江 / 袁泉 / 张天爱
特别声明:本站提供的所有高清电影作品均是在网上搜集,任何涉及商业盈利目的均不得使用,否则产生的一切后果将由您自己承担!本站将不对本站的任何内容负任何法律责任!该下载内容仅做宽带测试使用,请在下载后24小时内删除。请购买正版! 本站所有资源均由网上收集而来,版权归原影音公司所有,如果侵犯了你的权益,请通知我们,我们会及时删除侵权内容.

中国机长

[复制链接]
蓝鸟VIP会员 永久VIP 发表于 2019-12-15 12:02:55 | 显示全部楼层 |阅读模式 打印 上一主题 下一主题

马上注册,轻松下载,海量资源,让你轻松玩转社区。

您需要 登录 才可以下载或查看,没有帐号?立即注册

x
本帖最后由 蓝鸟 于 2019-12-15 13:58 编辑 % e1 `3 w$ ~( b" Y4 K% _
( f* H, k7 c8 V
简      介& @0 o% h$ a* I+ ^; s

0 ]$ _  `( [0 h  根据2018年5月14日四川航空3U8633航班机组成功处置特情真实事件改编。机组执行航班任务时,在万米高空突遇驾驶舱风挡玻璃爆裂脱落、座舱释压的极端罕见险情,生死关头,他们临危不乱、果断应对、正确处置,确保了机上全部人员的生命安全,创造了世界民航史上的奇迹。% k* G6 R' z/ @* |  q

% x9 o, ~! j; B; N8 T: |, v/ i5 J& L/ t. F
影片参数
General+ V" @' K$ J' Q2 y% Z* N+ V$ V# Q) O
Format                         : MPEG-4, J/ }  E  Y. f, v: Z- ?( \& e
Format profile                 : Base Media6 D- ~7 z, L, Z, g% C6 a  H
Codec ID                       : isom (isom/avc1)
( z. b" y9 U3 ~& z1 H) O  y/ AFile size                      : 1.77 GiB' Z, p( z; O% G% Z% `
Duration                       : 1 h 50 min
2 H2 R/ s6 p' l, hOverall bit rate mode          : Variable* g  M/ r% A& O2 C
Overall bit rate               : 2 296 kb/s3 c0 c" I+ c# x+ ]
Encoded date                   : UTC 2019-12-03 12:14:07
5 D9 u. U8 j! O- e. Z1 RTagged date                    : UTC 2019-12-03 12:14:07( {" z8 {/ T! L3 l% K

; @' V; t- b( j. AVideo
) w/ M) n  o$ `8 L; @' X% n3 {ID                             : 1
$ Y; C  m$ h0 ?: MFormat                         : AVC
# I4 r3 h1 a, D, @Format/Info                    : Advanced Video Codec( {, q/ L; V/ U& m& Q$ B& I% o4 A
Format profile                 : High@L3.1
1 x5 j6 O# _# o2 U) ^Format settings                : CABAC / 4 Ref Frames
' w" I! L; ^+ IFormat settings, CABAC         : Yes7 ^' }3 _" v! o4 K" C: x/ o. B3 X
Format settings, Reference fra : 4 frames$ V! u6 C/ o7 }% K
Codec ID                       : avc1) D3 v8 n8 e& }5 k
Codec ID/Info                  : Advanced Video Coding
0 X$ o$ `! P' ]* i: h5 ]Duration                       : 1 h 50 min
5 e4 _. h! A  PBit rate                       : 2 196 kb/s/ O' O3 t) W. T: G/ M, _! ]% m
Maximum bit rate               : 10.4 Mb/s
- t; c0 u! [4 b+ e0 mWidth                          : 1 920 pixels
" w/ |, y. z1 j5 lHeight                         : 1 080 pixels1 z1 r1 [* b, H- N7 d1 I
Display aspect ratio           : 16:9- y6 a3 @" g7 T$ {
Frame rate mode                : Constant
, Q. P' ^+ {, L& ?Frame rate                     : 24.000 FPS
; }, i" E7 n5 t6 \: A. ?3 fColor space                    : YUV  ~8 J7 O- c6 l9 l
Chroma subsampling             : 4:2:0) }$ J8 s0 C: A$ R7 {  Y
Bit depth                      : 8 bits' g- M. g8 E6 E7 [! h4 G
Scan type                      : Progressive3 A$ h; t( N$ Y+ o3 C, r
Bits/(Pixel*Frame)             : 0.044; |* _3 K# `: Q) ?; R
Stream size                    : 1.69 GiB (96%)& @) p: y' k, X
Writing library                : x264 core 157 r2935 545de2f
# B3 Q; ]5 C4 d/ K3 CEncoding settings              : cabac=1 / ref=2 / deblock=1:0:0 / analyse=0x3:0x113 / me=hex / subme=4 / psy=0 / mixed_ref=0 / me_range=16 / chroma_me=1 / trellis=1 / 8x8dct=1 / cqm=0 / deadzone=21,11 / fast_pskip=1 / chroma_qp_offset=0 / threads=34 / lookahead_threads=8 / sliced_threads=0 / nr=0 / decimate=1 / interlaced=0 / bluray_compat=0 / constrained_intra=0 / bframes=3 / b_pyramid=2 / b_adapt=1 / b_bias=0 / direct=1 / weightb=1 / open_gop=0 / weightp=1 / keyint=240 / keyint_min=23 / scenecut=40 / intra_refresh=0 / rc_lookahead=20 / rc=crf / mbtree=1 / crf=24.0 / qcomp=0.60 / qpmin=0 / qpmax=69 / qpstep=4 / vbv_maxrate=17500 / vbv_bufsize=17500 / crf_max=0.0 / nal_hrd=none / filler=0 / ip_ratio=1.40 / aq=1:0.00
6 E6 T$ Z6 J8 Y+ `; u  S1 YEncoded date                   : UTC 2019-12-03 12:14:07' D. F& i' ?& k# m
Tagged date                    : UTC 2019-12-03 12:14:32
! F, C: y# o; S4 B8 a4 k, D* OCodec configuration box        : avcC+ H& B1 p: i( S/ G( k4 u8 ^3 |% h& l+ Q
/ s! m, I" J; d# n
Audio/ {7 l9 n9 c8 j2 ]& A* }
ID                             : 2
8 u2 \+ i( C6 }. Q2 d, PFormat                         : AAC LC4 c5 `9 ?/ d! B4 n
Format/Info                    : Advanced Audio Codec Low Complexity( x+ K4 P6 M* U  A
Codec ID                       : mp4a-40-2
- e4 a3 U7 m' uDuration                       : 1 h 50 min
* o1 \$ c9 S2 _: G5 r8 zBit rate mode                  : Variable
( W+ D- n# c$ l/ Z  fBit rate                       : 96.0 kb/s, [2 y; S/ ?4 T1 p' n
Maximum bit rate               : 103 kb/s
4 X6 Y% c6 r8 L7 B! Z6 i2 j# `# FChannel(s)                     : 2 channels
# G2 W# K8 E5 Z$ tChannel layout                 : L R) W; h" Z) _; n
Sampling rate                  : 48.0 kHz+ z) x3 F+ I; I. I" L  Z; J0 D: M
Frame rate                     : 46.875 FPS (1024 SPF)
& ^, |% u9 O! g* O  x& L' dCompression mode               : Lossy
) l- @: a* J; ]4 r/ B1 z6 xStream size                    : 75.8 MiB (4%)
( ~# D1 h# ]' _8 L9 DLanguage                       : Chinese
) C: |8 k, y& k0 b- r' I% ~0 qEncoded date                   : UTC 2019-12-03 09:00:29( N1 \* F4 G2 I) A: J$ t' J  W
Tagged date                    : UTC 2019-12-03 12:14:321 f+ q% d* J  B

/ L: W/ ~( }( \0 ?* C9 G精彩剧照6 ?4 z" W* w" V% Q5 k+ b

  A. u& b7 {! o9 B( t- {) c

中国机长

中国机长

中国机长

中国机长

中国机长

中国机长

中国机长

中国机长

# T! W) \8 o3 Z' j  x# D% u6 k3 J0 f, ]
$ x- H( q2 ?7 ^
蓝光高清网提示您  点击下方附件名称  马上开始下载
3 W" ?% F) M! W  b9 H8 q: e

/ p, y0 q- S# V# d3 ], c2 E$ | 中国机长 百度云.txt (70 Bytes, 下载次数: 64)

加入蓝光高清网VIP会员  无限制下载本站所有资源---点此加入

资源下载、资源播放、字幕使用、无法下载等常见问题---点这里

回复

使用道具 举报

精彩评论122

zchnny 发表于 2019-12-15 12:13:25 | 显示全部楼层
sfweoeroiqwetasd!

加入蓝光高清网VIP会员  无限制下载本站所有资源---点此加入

资源下载、资源播放、字幕使用、无法下载等常见问题---点这里

回复

使用道具 举报

hbhujunbo 发表于 2019-12-15 14:42:26 | 显示全部楼层
找了好久 终于找到了  谢谢分享

加入蓝光高清网VIP会员  无限制下载本站所有资源---点此加入

资源下载、资源播放、字幕使用、无法下载等常见问题---点这里

回复

使用道具 举报

pc12345 发表于 2019-12-15 15:48:46 | 显示全部楼层
学习了,谢谢分享、、、

加入蓝光高清网VIP会员  无限制下载本站所有资源---点此加入

资源下载、资源播放、字幕使用、无法下载等常见问题---点这里

回复

使用道具 举报

eMzRsGiW 发表于 2019-12-15 16:30:03 | 显示全部楼层
谢谢分享

加入蓝光高清网VIP会员  无限制下载本站所有资源---点此加入

资源下载、资源播放、字幕使用、无法下载等常见问题---点这里

回复

使用道具 举报

yunling911 发表于 2019-12-15 16:30:03 | 显示全部楼层
学习了,谢谢分享、、、

加入蓝光高清网VIP会员  无限制下载本站所有资源---点此加入

资源下载、资源播放、字幕使用、无法下载等常见问题---点这里

回复

使用道具 举报

huijia 发表于 2019-12-15 17:47:12 | 显示全部楼层
楼主幸苦了

加入蓝光高清网VIP会员  无限制下载本站所有资源---点此加入

资源下载、资源播放、字幕使用、无法下载等常见问题---点这里

回复

使用道具 举报

VWdDPTst 发表于 2019-12-15 17:47:11 | 显示全部楼层
好好 学习了 确实不错

加入蓝光高清网VIP会员  无限制下载本站所有资源---点此加入

资源下载、资源播放、字幕使用、无法下载等常见问题---点这里

回复

使用道具 举报

wh_sun 发表于 2019-12-15 19:18:51 | 显示全部楼层
刷一波高清币,嘿嘿

加入蓝光高清网VIP会员  无限制下载本站所有资源---点此加入

资源下载、资源播放、字幕使用、无法下载等常见问题---点这里

回复

使用道具 举报

amag 发表于 2019-12-15 19:29:03 | 显示全部楼层
好电影 谢谢楼主分享

加入蓝光高清网VIP会员  无限制下载本站所有资源---点此加入

资源下载、资源播放、字幕使用、无法下载等常见问题---点这里

回复

使用道具 举报

懒得打字嘛,点击右侧快捷回复
您需要登录后才可以回帖 登录 | 立即注册

本版积分规则

关注0

粉丝0

帖子72186

发布主题
最新电影 论坛
本期活动
联系我们
点击这里联系客服

服务时间:
周一到周日8:00-23:30

  • 打开微信扫一扫
    关注公众号

  • 手机QQ扫一扫
    添加客服

Archiver手机版蓝光高清网 ( 渝ICP备18006373号-2 )|网站地图

Powered by Discuz! X3.4  © 2001-2013 Comsenz Inc.