开通会员
全站资源畅享下载
4k原盘抢先下载
免高清币下载
会员用户组特权
开通会员
上传
收藏
首页
开启左侧

中国机长

[复制链接]
蓝鸟 发表于 2019-12-15 12:02:55 | 显示全部楼层 |阅读模式 打印 上一主题 下一主题

中国机长(2019年上映)

主演张涵予 / 欧豪 / 杜江 / 袁泉 / 张天爱
导演刘伟强
类型剧情 灾难 
地区中国大陆 
片长111分钟
画质4K 原盘
音轨LPCM 
评分豆瓣6.9分
电影【中国机长】原盘信息
 

加入蓝光高清网,轻松下载最新4k资源

您需要 登录 才可以下载或查看,没有帐号?立即注册

x
本帖最后由 蓝鸟 于 2019-12-15 13:58 编辑
$ R8 h0 H& ]7 @
0 p9 U/ F+ D7 i简      介
# f& \" ]$ j# W/ V7 v) ?3 W; ^% D
7 ?9 v+ ~+ ]3 s- A% L0 N% X
  根据2018年5月14日四川航空3U8633航班机组成功处置特情真实事件改编。机组执行航班任务时,在万米高空突遇驾驶舱风挡玻璃爆裂脱落、座舱释压的极端罕见险情,生死关头,他们临危不乱、果断应对、正确处置,确保了机上全部人员的生命安全,创造了世界民航史上的奇迹。
# `& r9 I5 `) _7 X% I1 s4 o1 ?0 G, i
" T6 G3 s5 F. A- H- k/ J
影片参数
General
  m+ ?7 k. H  z, QFormat                         : MPEG-4
, {& Q) p% u* b1 x* sFormat profile                 : Base Media# u1 N& D& L8 ~( b) T
Codec ID                       : isom (isom/avc1)  l$ r( s& E, M% u
File size                      : 1.77 GiB
& f7 y: t- f4 x) Z# @9 N& A& c: B% jDuration                       : 1 h 50 min
6 ^$ U9 w0 Y! F  [# W1 w% V  f, OOverall bit rate mode          : Variable
; Z3 W) e. A, N; n7 F. b  `Overall bit rate               : 2 296 kb/s
7 g0 z% T& k" l& p% Q2 |Encoded date                   : UTC 2019-12-03 12:14:07
6 ~& f8 p) G& X6 K4 X8 ]9 _& }0 pTagged date                    : UTC 2019-12-03 12:14:07" R8 d) u) t7 _) p% e% b

. a5 z( L5 |" xVideo
  J9 c% M/ [6 o: h* _" m( cID                             : 1
) C4 L% {& o2 n2 O$ D6 TFormat                         : AVC
2 l' T, Y7 X& v' QFormat/Info                    : Advanced Video Codec
/ W6 O: E: U8 i& h5 J2 \Format profile                 : High@L3.14 D# h9 S5 O/ [$ @* ?; L
Format settings                : CABAC / 4 Ref Frames
7 _& M8 i; O# W0 E; C; xFormat settings, CABAC         : Yes
$ z! p; ?& h% k; Q5 sFormat settings, Reference fra : 4 frames; p& i5 X% c1 W- c
Codec ID                       : avc1  k: `% g: X% `+ t, n& l9 q
Codec ID/Info                  : Advanced Video Coding- Q; A" [2 b3 c# r0 w$ u
Duration                       : 1 h 50 min4 |1 E, H5 t, {% i+ U) ~
Bit rate                       : 2 196 kb/s
- E! `3 @3 B0 x& h! a) v  I" K# }# EMaximum bit rate               : 10.4 Mb/s4 d# {6 p- u: r3 r. d
Width                          : 1 920 pixels
% L2 _' K. \+ z, \' x" \Height                         : 1 080 pixels
" {- ~4 a1 i1 R2 f8 P/ \  HDisplay aspect ratio           : 16:96 W7 P1 Q2 K8 v% A" |; X! v/ a% K
Frame rate mode                : Constant' r* }3 q( J" R, P. m7 J
Frame rate                     : 24.000 FPS6 G9 d9 m: i+ W2 H/ C( R
Color space                    : YUV
/ t* U( z* |0 e- ZChroma subsampling             : 4:2:0
* W2 V3 i& n# \Bit depth                      : 8 bits" `% i, z; U  w9 ^- E6 i" z- F
Scan type                      : Progressive$ A. l4 A# `% R. |) ~/ K, [, |: G
Bits/(Pixel*Frame)             : 0.044
1 O; O. Y% e8 A6 ^  O8 |Stream size                    : 1.69 GiB (96%)6 P3 a+ X' J3 W  M. l
Writing library                : x264 core 157 r2935 545de2f5 ]8 ]# s2 h) d
Encoding settings              : cabac=1 / ref=2 / deblock=1:0:0 / analyse=0x3:0x113 / me=hex / subme=4 / psy=0 / mixed_ref=0 / me_range=16 / chroma_me=1 / trellis=1 / 8x8dct=1 / cqm=0 / deadzone=21,11 / fast_pskip=1 / chroma_qp_offset=0 / threads=34 / lookahead_threads=8 / sliced_threads=0 / nr=0 / decimate=1 / interlaced=0 / bluray_compat=0 / constrained_intra=0 / bframes=3 / b_pyramid=2 / b_adapt=1 / b_bias=0 / direct=1 / weightb=1 / open_gop=0 / weightp=1 / keyint=240 / keyint_min=23 / scenecut=40 / intra_refresh=0 / rc_lookahead=20 / rc=crf / mbtree=1 / crf=24.0 / qcomp=0.60 / qpmin=0 / qpmax=69 / qpstep=4 / vbv_maxrate=17500 / vbv_bufsize=17500 / crf_max=0.0 / nal_hrd=none / filler=0 / ip_ratio=1.40 / aq=1:0.00
6 @! T  Z8 X& {3 ]Encoded date                   : UTC 2019-12-03 12:14:07" ?$ _% T4 S; z$ n3 V* [1 p
Tagged date                    : UTC 2019-12-03 12:14:32
) ~: j2 [) [! w& m) S# aCodec configuration box        : avcC8 |! v# ]& G0 |5 h
" D8 z6 l3 K7 L5 j% W. Q  z
Audio
% r& e" O# C$ T2 IID                             : 2
( R1 p. L; J% m2 T5 u4 g/ bFormat                         : AAC LC) U& q7 ^( j3 ^& H: b( m8 B
Format/Info                    : Advanced Audio Codec Low Complexity) X' [7 Z) z: Y* B# e5 G( N
Codec ID                       : mp4a-40-2# |* c: y2 o9 ?$ K7 U% a6 z
Duration                       : 1 h 50 min
2 O" B3 K0 p: v/ z+ ^Bit rate mode                  : Variable# s, j- v* M+ W" \0 u5 x. N6 W( ^& `
Bit rate                       : 96.0 kb/s
" }" p; i/ a" O0 k; _: HMaximum bit rate               : 103 kb/s- x5 _+ a- \3 l7 A& ]! ~7 w
Channel(s)                     : 2 channels
& k9 P! t" _- r2 D% fChannel layout                 : L R# ?' [; K7 g  S5 M- U  A( F* A+ U
Sampling rate                  : 48.0 kHz
! W6 O4 q! l. ?! LFrame rate                     : 46.875 FPS (1024 SPF)' `. B' t) U& L/ J
Compression mode               : Lossy0 T7 A; `" v. m
Stream size                    : 75.8 MiB (4%)
# f0 m& j& O$ D. \- CLanguage                       : Chinese
( c% C) {! b( _8 cEncoded date                   : UTC 2019-12-03 09:00:29: D, j  Y! P$ }% @
Tagged date                    : UTC 2019-12-03 12:14:32
: J7 `& G* h% z* n
6 R: j+ D( d4 E# ], }/ ^$ N精彩剧照* F- D; b  b% n  u* `: o

/ d( n4 o" I0 I

中国机长

中国机长

中国机长

中国机长

中国机长

中国机长

中国机长

中国机长

  [0 V4 a) Z( V; `8 V/ V9 ?' ~' A9 F

" `( c. I# t0 @3 a蓝光高清网提示您  点击下方附件名称  马上开始下载
3 C/ B" A; ~6 m) w
* V* j9 a7 s4 M; l& A1 y
中国机长 百度云.txt (70 Bytes, 下载次数: 107)
加入蓝光高清网VIP会员  无限制下载本站所有资源---点这里

资源下载、资源播放、字幕使用、无法下载等常见问题---点这里
回复

使用道具 举报

 

精彩评论125

正序浏览
zchnny 发表于 2019-12-15 12:13:25 | 显示全部楼层
 
sfweoeroiqwetasd!
回复

使用道具 举报

 
hbhujunbo 发表于 2019-12-15 14:42:26 | 显示全部楼层
 
找了好久 终于找到了  谢谢分享
回复

使用道具 举报

 
pc12345 发表于 2019-12-15 15:48:46 | 显示全部楼层
 
学习了,谢谢分享、、、
回复

使用道具 举报

 
eMzRsGiW 发表于 2019-12-15 16:30:03 | 显示全部楼层
 
谢谢分享
回复

使用道具 举报

 
yunling911 发表于 2019-12-15 16:30:03 | 显示全部楼层
 
学习了,谢谢分享、、、
回复

使用道具 举报

 
huijia 发表于 2019-12-15 17:47:12 | 显示全部楼层
 
楼主幸苦了
回复

使用道具 举报

 
VWdDPTst 发表于 2019-12-15 17:47:11 | 显示全部楼层
 
好好 学习了 确实不错
回复

使用道具 举报

 
wh_sun 发表于 2019-12-15 19:18:51 | 显示全部楼层
 
刷一波高清币,嘿嘿
回复

使用道具 举报

 
amag 发表于 2019-12-15 19:29:03 | 显示全部楼层
 
好电影 谢谢楼主分享
回复

使用道具 举报

 
您需要登录后才可以回帖 登录 | 立即注册

本版积分规则

0关注

1粉丝

91251帖子

  • 版块推荐
  • 百宝箱

电影推荐

更多+

热门电影

更多+

关注我们:微信服务号

官方微信

手机版

蓝光高清网

专注4k电影、4k视频、VR视频、高清电影、蓝光原盘资源

本站内容部分由用户自主分享和转载自互联网,转载目的在于传递更多信息,并不代表本网赞同其观点和对其真实性负责。

如有侵权、违反国家法律政策行为,请联系我们,我们会第一时间及时清除和处理!

举报反馈邮箱:lanniao@1080pro.net

Copyright   ©2019-2020  蓝光高清网    |网站地图