开通会员
全站资源畅享下载
4k原盘抢先下载
免高清币下载
会员用户组特权
开通会员
上传
收藏
首页
开启左侧

中国机长

[复制链接]
蓝鸟 发表于 2019-12-15 12:02:55 | 显示全部楼层 |阅读模式 打印 上一主题 下一主题

中国机长(2019年上映)

主演张涵予 / 欧豪 / 杜江 / 袁泉 / 张天爱
导演刘伟强
类型剧情 灾难 
地区中国大陆 
片长111分钟
画质4K 原盘
音轨LPCM 
评分豆瓣6.9分
电影【中国机长】原盘信息
 

加入蓝光高清网,轻松下载最新4k资源

您需要 登录 才可以下载或查看,没有帐号?立即注册

x
本帖最后由 蓝鸟 于 2019-12-15 13:58 编辑
4 L  j  w5 ]8 N. }& t
; d3 n) }6 W  `- ^9 Q) A简      介2 e8 @% F* Y* p/ z- D5 w- u

) |( O; s$ B1 X  根据2018年5月14日四川航空3U8633航班机组成功处置特情真实事件改编。机组执行航班任务时,在万米高空突遇驾驶舱风挡玻璃爆裂脱落、座舱释压的极端罕见险情,生死关头,他们临危不乱、果断应对、正确处置,确保了机上全部人员的生命安全,创造了世界民航史上的奇迹。
! S; m  A6 M7 M5 O  K7 x* u! ]# m/ D4 h4 A7 O* |
9 c! b% }  S7 s7 ], A
影片参数
General
7 P! L5 R1 u1 [! \0 k" n, Z( aFormat                         : MPEG-4" q$ Q/ x8 {, D/ s4 t) x
Format profile                 : Base Media
' |+ t4 j+ ?) ?6 B$ u2 oCodec ID                       : isom (isom/avc1)
) j% Y- i! a9 }( V4 i! |File size                      : 1.77 GiB( `) K/ L0 f) y" L* ~0 \
Duration                       : 1 h 50 min
* b6 x3 s! Q% `$ o% `: t+ u0 yOverall bit rate mode          : Variable
2 G9 f$ F& T$ V3 u9 Q& K1 i$ `Overall bit rate               : 2 296 kb/s
4 L- h1 [: Z; LEncoded date                   : UTC 2019-12-03 12:14:075 B  P" U7 s6 {$ k
Tagged date                    : UTC 2019-12-03 12:14:07
8 c% j" M0 h" y4 Z1 j/ W# ?4 Q( N# {( O( m# ]
Video0 Q; i7 x8 a% g- |
ID                             : 1
$ ]- H& [8 v7 H% Y9 |7 ]5 r( YFormat                         : AVC
& l; p' v0 e+ I7 \Format/Info                    : Advanced Video Codec
% @! g6 ]3 V1 E. l' W$ bFormat profile                 : High@L3.1
: C/ m5 j' L5 AFormat settings                : CABAC / 4 Ref Frames
4 G. v1 l! G% Z; \Format settings, CABAC         : Yes
" }% g/ e/ F2 S) T; D) E' H" k1 XFormat settings, Reference fra : 4 frames
9 [" I3 ^  O, D3 _# dCodec ID                       : avc13 E8 c2 R, n9 V
Codec ID/Info                  : Advanced Video Coding4 K( d4 o! o: S5 H8 M) q% `
Duration                       : 1 h 50 min
" i. ]3 t  V1 ^9 B/ JBit rate                       : 2 196 kb/s
/ y# T! y) U1 v( m: @; W+ F0 QMaximum bit rate               : 10.4 Mb/s
' E" H5 }, F- I- Z; |Width                          : 1 920 pixels- u: g( \+ f3 t( x" i7 E
Height                         : 1 080 pixels
, G7 v  w5 c  ]& E  MDisplay aspect ratio           : 16:98 f& ^( G: A; y7 A/ |0 M
Frame rate mode                : Constant' F: @' ~2 f( G: R5 f
Frame rate                     : 24.000 FPS
; ~( y( d" V/ a* \7 aColor space                    : YUV5 C! ~3 ^% h/ J$ K& e
Chroma subsampling             : 4:2:0' c/ x/ _( h% E
Bit depth                      : 8 bits$ [0 K# R: j+ g+ G" ]
Scan type                      : Progressive
( N- Y. W( V* }) C- f/ xBits/(Pixel*Frame)             : 0.044
" l) Q& ^- k/ C2 PStream size                    : 1.69 GiB (96%). b0 s8 r2 H, T6 \2 D/ S
Writing library                : x264 core 157 r2935 545de2f
% g/ c- \  T" X+ P) REncoding settings              : cabac=1 / ref=2 / deblock=1:0:0 / analyse=0x3:0x113 / me=hex / subme=4 / psy=0 / mixed_ref=0 / me_range=16 / chroma_me=1 / trellis=1 / 8x8dct=1 / cqm=0 / deadzone=21,11 / fast_pskip=1 / chroma_qp_offset=0 / threads=34 / lookahead_threads=8 / sliced_threads=0 / nr=0 / decimate=1 / interlaced=0 / bluray_compat=0 / constrained_intra=0 / bframes=3 / b_pyramid=2 / b_adapt=1 / b_bias=0 / direct=1 / weightb=1 / open_gop=0 / weightp=1 / keyint=240 / keyint_min=23 / scenecut=40 / intra_refresh=0 / rc_lookahead=20 / rc=crf / mbtree=1 / crf=24.0 / qcomp=0.60 / qpmin=0 / qpmax=69 / qpstep=4 / vbv_maxrate=17500 / vbv_bufsize=17500 / crf_max=0.0 / nal_hrd=none / filler=0 / ip_ratio=1.40 / aq=1:0.00
+ t- a3 [8 }7 _' V! D; FEncoded date                   : UTC 2019-12-03 12:14:07: w- v2 k$ c: M$ }  a; Z& M
Tagged date                    : UTC 2019-12-03 12:14:32
6 V1 a2 Q) s$ s; ^- |, oCodec configuration box        : avcC
" n1 b8 H# X$ i
- x  u7 r# O0 w/ f1 r- }& y9 CAudio; R7 D1 ^; K/ E
ID                             : 2' R4 R# C& k' ^7 B. V2 E" V
Format                         : AAC LC
3 L" g/ c3 H7 P, l6 yFormat/Info                    : Advanced Audio Codec Low Complexity
# i( r4 y  m( z+ @* Y  G; s) Q  VCodec ID                       : mp4a-40-2" K4 M1 S5 k  L/ h# B8 r
Duration                       : 1 h 50 min9 d# D; ^$ M8 z+ W( ]% Z
Bit rate mode                  : Variable
; O: V: X1 W! BBit rate                       : 96.0 kb/s5 t5 R- N/ _. [2 W+ `
Maximum bit rate               : 103 kb/s
! J! `: I8 i! S+ W* x" U; z) O5 \Channel(s)                     : 2 channels
! Q% z7 l* D+ ?' t1 zChannel layout                 : L R% X  G5 M- V& S: J+ i! O
Sampling rate                  : 48.0 kHz& d. F; |  V2 L; D
Frame rate                     : 46.875 FPS (1024 SPF)0 ]$ s! z( x3 ]$ x- r8 c
Compression mode               : Lossy6 T3 |# u3 ^( V0 f5 J8 W9 F) {
Stream size                    : 75.8 MiB (4%)
- a2 W2 ^( ]( ?3 ~Language                       : Chinese
# G5 o( U$ _0 E' L; Q2 ]1 H: {! KEncoded date                   : UTC 2019-12-03 09:00:29
; P. U8 K7 x8 a$ T  JTagged date                    : UTC 2019-12-03 12:14:32
+ |& |% q  ]+ f! E! G9 G, Q
% E7 n: v4 h$ x9 q& I精彩剧照
' f* g' ~+ P( h# b/ v/ w5 n5 T( ^/ e! K8 n

中国机长

中国机长

中国机长

中国机长

中国机长

中国机长

中国机长

中国机长

+ o: r9 O$ u- n4 C
( J; d# w* j6 W- t" X; K2 v
, O5 |% m/ @9 u5 R蓝光高清网提示您  点击下方附件名称  马上开始下载
, S8 n& s' Z2 \$ s" ^) \6 w

# u' C, Z) a/ w$ W8 r( v 中国机长 百度云.txt (文件大小:70 Bytes)
加入蓝光高清网VIP会员  无限制下载本站所有资源---点这里

资源下载、资源播放、字幕使用、无法下载等常见问题---点这里
回复

使用道具 举报

 

精彩评论127

正序浏览
zchnny 发表于 2019-12-15 12:13:25 | 显示全部楼层
 
sfweoeroiqwetasd!
回复

使用道具 举报

 
hbhujunbo 发表于 2019-12-15 14:42:26 | 显示全部楼层
 
找了好久 终于找到了  谢谢分享
回复

使用道具 举报

 
pc12345 发表于 2019-12-15 15:48:46 | 显示全部楼层
 
学习了,谢谢分享、、、
回复

使用道具 举报

 
eMzRsGiW 发表于 2019-12-15 16:30:03 | 显示全部楼层
 
谢谢分享
回复

使用道具 举报

 
yunling911 发表于 2019-12-15 16:30:03 | 显示全部楼层
 
学习了,谢谢分享、、、
回复

使用道具 举报

 
huijia 发表于 2019-12-15 17:47:12 | 显示全部楼层
 
楼主幸苦了
回复

使用道具 举报

 
VWdDPTst 发表于 2019-12-15 17:47:11 | 显示全部楼层
 
好好 学习了 确实不错
回复

使用道具 举报

 
wh_sun 发表于 2019-12-15 19:18:51 | 显示全部楼层
 
刷一波高清币,嘿嘿
回复

使用道具 举报

 
amag 发表于 2019-12-15 19:29:03 | 显示全部楼层
 
好电影 谢谢楼主分享
回复

使用道具 举报

 
您需要登录后才可以回帖 登录 | 立即注册

本版积分规则

0关注

2粉丝

93704帖子

  • 版块推荐
  • 百宝箱

电影推荐

更多+

热门电影

更多+

下载APP 签到更便捷

官方微信

手机APP

蓝光高清网

专注4k电影、4k视频、VR视频、高清电影、蓝光原盘资源

本站内容部分由用户自主分享和转载自互联网,转载目的在于传递更多信息,并不代表本网赞同其观点和对其真实性负责。

如有侵权、违反国家法律政策行为,请联系我们,我们会第一时间及时清除和处理!

举报反馈邮箱:lanniao@1080pro.net

Copyright   ©2019-2020  蓝光高清网    |网站地图