中国机长
4K 
6.9
  • 年代: 2019年
  • 国家/地区: 中国大陆
  • 类型: 剧情 灾难 
  • 导演: 刘伟强
  • 音轨: LPCM 
  • 时长: 111分钟
  • 主演:张涵予 / 欧豪 / 杜江 / 袁泉 / 张天爱
特别声明:本站提供的所有高清电影作品均是在网上搜集,任何涉及商业盈利目的均不得使用,否则产生的一切后果将由您自己承担!本站将不对本站的任何内容负任何法律责任!该下载内容仅做宽带测试使用,请在下载后24小时内删除。请购买正版! 本站所有资源均由网上收集而来,版权归原影音公司所有,如果侵犯了你的权益,请通知我们,我们会及时删除侵权内容.

中国机长

[复制链接]
蓝鸟 发表于 2019-12-15 12:02:55 | 显示全部楼层 |阅读模式 打印 上一主题 下一主题
本帖最后由 蓝鸟 于 2019-12-15 13:58 编辑
' G1 @) V, N$ F' h* C# P0 t$ W/ N7 K. ?8 p
简      介
( R) V7 I% R+ i! x6 v( S! `
; q3 h0 d# J! k( \1 r- s  {2 H
  根据2018年5月14日四川航空3U8633航班机组成功处置特情真实事件改编。机组执行航班任务时,在万米高空突遇驾驶舱风挡玻璃爆裂脱落、座舱释压的极端罕见险情,生死关头,他们临危不乱、果断应对、正确处置,确保了机上全部人员的生命安全,创造了世界民航史上的奇迹。! n, {  m* M! g% B
. w1 T- w) V3 e* \5 V' E# M- H9 }
9 c* x; f( m3 ]/ H) w; y
影片参数
General1 F; M4 a( Z# y5 t- X3 y6 W
Format                         : MPEG-4
0 u/ W" P  ?8 L. y5 n$ Q2 ZFormat profile                 : Base Media
+ Y, i6 G3 ~3 T) O/ N, yCodec ID                       : isom (isom/avc1)
6 {4 x- o+ S# @9 `File size                      : 1.77 GiB
0 P& u* z/ N- S+ H+ h, K. FDuration                       : 1 h 50 min
/ T6 B3 P/ n) WOverall bit rate mode          : Variable. B$ v+ h+ m, p( m7 z9 n" b! O+ W
Overall bit rate               : 2 296 kb/s; S' w3 l8 A3 b& ]1 _
Encoded date                   : UTC 2019-12-03 12:14:07
& n) Z! `; S# zTagged date                    : UTC 2019-12-03 12:14:072 s: }' @* I( L: m  Z, S, B) e6 Q

6 U; B, d' n* y. |% yVideo9 D/ e) P0 v9 U) G& Q% D4 O( g
ID                             : 1! z5 Z* {3 T9 x, }  q- o; J
Format                         : AVC
7 X9 P1 _0 A* q# |Format/Info                    : Advanced Video Codec
% P+ _* C) }! Z- eFormat profile                 : High@L3.15 p1 ~# h( W' t" x9 K: K
Format settings                : CABAC / 4 Ref Frames2 B! o: j3 h4 `# @# w5 ^
Format settings, CABAC         : Yes
. n+ m% }( {* N; r4 N' {: ^Format settings, Reference fra : 4 frames* m" V. f8 p6 x/ P, P. C& ^6 K
Codec ID                       : avc16 e' b( z9 r+ x" Z2 w4 L2 w, P
Codec ID/Info                  : Advanced Video Coding
1 e1 D" H* g' s: I- DDuration                       : 1 h 50 min
1 q+ ^$ o* O+ XBit rate                       : 2 196 kb/s
' ^& b3 y/ F1 q" O. ]/ gMaximum bit rate               : 10.4 Mb/s3 h8 V" m8 R2 _/ v4 l  a+ B
Width                          : 1 920 pixels. I+ d. l- b/ a9 C
Height                         : 1 080 pixels& b" x5 u9 D+ ]9 Y
Display aspect ratio           : 16:9
9 v( G- h3 b* c- m( x& cFrame rate mode                : Constant
" y# f% [# j% Z* M" f* k0 s# \Frame rate                     : 24.000 FPS
* W# b, ~2 T' O# ^Color space                    : YUV
+ P, S- S$ p1 S) c$ [, @  {: S) S3 z$ XChroma subsampling             : 4:2:0" x! b/ ?% F0 m7 J
Bit depth                      : 8 bits* o* X; O% a" u" j
Scan type                      : Progressive
) N7 Y. V7 P! P( WBits/(Pixel*Frame)             : 0.044) F4 N# q. c2 V- a7 J% ?
Stream size                    : 1.69 GiB (96%)
. o* n* [# g( i& P" U5 M* kWriting library                : x264 core 157 r2935 545de2f
  w0 x) Y; ~' E$ X* X/ {6 y1 cEncoding settings              : cabac=1 / ref=2 / deblock=1:0:0 / analyse=0x3:0x113 / me=hex / subme=4 / psy=0 / mixed_ref=0 / me_range=16 / chroma_me=1 / trellis=1 / 8x8dct=1 / cqm=0 / deadzone=21,11 / fast_pskip=1 / chroma_qp_offset=0 / threads=34 / lookahead_threads=8 / sliced_threads=0 / nr=0 / decimate=1 / interlaced=0 / bluray_compat=0 / constrained_intra=0 / bframes=3 / b_pyramid=2 / b_adapt=1 / b_bias=0 / direct=1 / weightb=1 / open_gop=0 / weightp=1 / keyint=240 / keyint_min=23 / scenecut=40 / intra_refresh=0 / rc_lookahead=20 / rc=crf / mbtree=1 / crf=24.0 / qcomp=0.60 / qpmin=0 / qpmax=69 / qpstep=4 / vbv_maxrate=17500 / vbv_bufsize=17500 / crf_max=0.0 / nal_hrd=none / filler=0 / ip_ratio=1.40 / aq=1:0.00
( |# t! x, W7 R4 [Encoded date                   : UTC 2019-12-03 12:14:07
3 P8 c( ~' r* i4 q. T3 Q/ B) p8 y, DTagged date                    : UTC 2019-12-03 12:14:32
5 s! `0 w- o# e* J; v% K0 oCodec configuration box        : avcC/ L  {! i- n' Z: l' n8 U$ n
: I2 o5 P+ X* _, L
Audio5 W2 s5 O' r- u, l+ K4 P
ID                             : 22 d$ L$ _$ ~  n: T) e( u9 w% ^
Format                         : AAC LC7 J% }; G; q9 W0 u# a5 E# }
Format/Info                    : Advanced Audio Codec Low Complexity
; V0 X" P* z: _: s. D. Q/ `3 fCodec ID                       : mp4a-40-2
- d1 ^4 O7 l) ]3 G* _% MDuration                       : 1 h 50 min
, ]1 a6 X4 F; n% i* K$ J9 nBit rate mode                  : Variable
4 v* O+ R. N# mBit rate                       : 96.0 kb/s
! g7 X# D9 E6 O, a5 X$ SMaximum bit rate               : 103 kb/s5 P# l' J) ]7 K+ H) @7 @
Channel(s)                     : 2 channels" e2 b6 ?, g" ~- L4 ?
Channel layout                 : L R
( ?8 K  c1 Z) E2 y$ Z3 iSampling rate                  : 48.0 kHz7 t( O" V! ]  Y& C
Frame rate                     : 46.875 FPS (1024 SPF)
2 x: {7 K! y# P4 U# a, Q4 |2 qCompression mode               : Lossy) v7 }- A, ?+ x
Stream size                    : 75.8 MiB (4%)
( e) Q6 F; L/ ?( qLanguage                       : Chinese7 W/ h! D2 {9 ^1 @* Y4 t
Encoded date                   : UTC 2019-12-03 09:00:29
$ z! {2 [0 z; @& }& O8 T* t+ ]- _8 Z5 bTagged date                    : UTC 2019-12-03 12:14:32: [" H3 {' G  A$ s2 c
1 |3 z$ A& G1 l( A- ~8 o
精彩剧照+ v- ?; ?6 O2 l4 ^2 D
3 X, C  K' L& W8 E

中国机长

中国机长

中国机长

中国机长

中国机长

中国机长

中国机长

中国机长

# t3 h$ F* P+ `( C
8 B) N4 y% x4 l  }7 J# Y, p1 R- X6 T8 n5 @5 y9 w
蓝光高清网提示您  点击下方附件名称  马上开始下载
& M, |% k7 s( a( E, U9 I/ n& `
7 E! ], ]) L- E
中国机长 百度云.txt 
         (70 Bytes    阅读权限: 20)
加入蓝光高清网VIP会员  无限制下载本站所有资源---点这里

资源下载、资源播放、字幕使用、无法下载等常见问题---点这里
回复

使用道具 举报

精彩评论125

zchnny 发表于 2019-12-15 12:13:25 | 显示全部楼层
sfweoeroiqwetasd!
回复

使用道具 举报

hbhujunbo 发表于 2019-12-15 14:42:26 | 显示全部楼层
找了好久 终于找到了  谢谢分享
回复

使用道具 举报

pc12345 发表于 2019-12-15 15:48:46 | 显示全部楼层
学习了,谢谢分享、、、
回复

使用道具 举报

eMzRsGiW 发表于 2019-12-15 16:30:03 | 显示全部楼层
谢谢分享
回复

使用道具 举报

yunling911 发表于 2019-12-15 16:30:03 | 显示全部楼层
学习了,谢谢分享、、、
回复

使用道具 举报

huijia 发表于 2019-12-15 17:47:12 | 显示全部楼层
楼主幸苦了
回复

使用道具 举报

VWdDPTst 发表于 2019-12-15 17:47:11 | 显示全部楼层
好好 学习了 确实不错
回复

使用道具 举报

wh_sun 发表于 2019-12-15 19:18:51 | 显示全部楼层
刷一波高清币,嘿嘿
回复

使用道具 举报

amag 发表于 2019-12-15 19:29:03 | 显示全部楼层
好电影 谢谢楼主分享
回复

使用道具 举报

您需要登录后才可以回帖 登录 | 立即注册

本版积分规则

关注0

粉丝1

帖子88153

发布主题
最新电影 论坛
本期活动
联系我们
点击这里联系客服

服务时间:
周一到周日8:00-23:30

  • 打开微信扫一扫
    关注公众号

  • 手机QQ扫一扫
    添加客服

手机版蓝光高清网 |网站地图

Powered by Discuz! X3.4 Licensed  © 2001-2013 Comsenz Inc.