圣诞夜惊魂
sbs 
8.2
  • 年代: 1993年
  • 国家/地区: 美国
  • 类型: 剧情 动画 奇幻 
  • 导演: 亨利·塞利克
  • 音轨: LPCM 
  • 时长: 76分钟
  • 主演:丹尼·艾夫曼 / 克里斯·萨兰登 / 凯瑟琳·欧哈拉 / 威廉·赫基
特别声明:本站提供的所有高清电影作品均是在网上搜集,任何涉及商业盈利目的均不得使用,否则产生的一切后果将由您自己承担!本站将不对本站的任何内容负任何法律责任!该下载内容仅做宽带测试使用,请在下载后24小时内删除。请购买正版! 本站所有资源均由网上收集而来,版权归原影音公司所有,如果侵犯了你的权益,请通知我们,我们会及时删除侵权内容.

圣诞夜惊魂/怪诞城之夜 The.Nightmare.Before.Christmas.1993.3D.1080p.BluRay.x264-GUACAMOLE 5.46GB

[复制链接]
蓝鸟VIP会员 永久VIP 发表于 2019-12-24 09:29:58 | 显示全部楼层 |阅读模式 打印 上一主题 下一主题

马上注册,轻松下载,海量资源,让你轻松玩转社区。

您需要 登录 才可以下载或查看,没有帐号?立即注册

x
简  介  4 M3 |: Q$ W& d! k+ O% ?. z

3 j$ N4 x9 q6 K- E0 U. _  万圣镇的各位鬼怪,已经习惯于在每年万圣节那天出没搞作一下,他们是彻头彻尾的少根筋的生物,只晓得如何吓人。而南瓜王子杰克,是非常与众不同的一个。他已经厌倦了带给人们惊恐的玩意,一心想做出某些改变。偶然一次打开了圣诞镇的大门,让他眼前豁然一亮,杰克心中燃起了要带领兄弟制造圣诞欢乐的决心。
5 d7 Y9 T3 {* w- @( r4 y  但是,这帮万圣镇的鬼怪们似乎并不明白其中深意。杰克绑架了胖乎乎的圣诞老人,吩咐伙计们开始埋头制作圣诞礼物。满脑只有恐怖点子的万圣镇兄弟,又怎能逃过思维惯性,做出令人欢乐的礼物呢。于是,恐怖的、吓人的礼物将在圣诞那夜抛给孩子们,当杰克坐着人造鹿车派出礼物时,一枚高射炮正对准了这个好心办坏事的可怜虫。
4 D2 g3 t; u9 Z' T  o2 u7 y2 ?, P  F1 a( a5 V3 }6 N
获奖情况  
5 X- F" u6 G; z" w3 U$ {3 w

7 U6 s, }7 u+ L9 {6 z  第66届奥斯卡金像奖(1994)* j: r& ]5 B8 B( i( q
  最佳视觉效果(提名) 埃里克·莱顿 / Pete Kozachik / Ariel Velasco-Shaw / Gordon Baker
! [+ c- d$ Z# J* ~; G; P3 ?  M$ S' L) ~
  第22届动画安妮奖(1994)
2 c% z) ^1 |# |4 X2 R1 e1 R- C  最佳动画长片(提名)/ f: v+ y5 H- R2 U+ q
  最佳艺术指导 迪恩·泰勒# K! `  e/ R. e9 I0 t1 N( b) I
  最佳创意监督 亨利·塞利克
  j" \* |& E" c, A3 j影片参数
" Y( D0 ^; m8 \6 @$ L( V7 o4 t7 K8 f2 n. s
  • Video
    3 M$ k$ j9 b, v, @1 H- l7 @# K
7 L. M1 r9 Z2 k
  • ID                                       : 1
  • Format                                   : AVC
  • Format/Info                              : Advanced Video Codec
  • Format profile                           : High@L4
  • MultiView_Count                          : 2
  • MultiView_Layout                         : Side by Side (left eye first)
  • Format settings                          : CABAC / 4 Ref Frames
  • Format settings, CABAC                   : Yes
  • Format settings, Reference frames        : 4 frames
  • Codec ID                                 : V_MPEG4/ISO/AVC
  • Duration                                 : 1 h 16 min
  • Bit rate                                 : 9 556 kb/s
  • Width                                    : 1 920 pixels
  • Height                                   : 1 080 pixels
  • Display aspect ratio                     : 16:9
  • Frame rate mode                          : Constant
  • Frame rate                               : 23.976 FPS
  • Color space                              : YUV
  • Chroma subsampling                       : 4:2:0
  • Bit depth                                : 8 bits
  • Scan type                                : Progressive
  • Bits/(Pixel*Frame)                       : 0.192
  • Stream size                              : 5.11 GiB (94%)
  • Writing library                          : x264 core 159 r2991 1771b55
  • Encoding settings                        : cabac=1 / ref=4 / deblock=1:-1:-1 / analyse=0x3:0x113 / me=umh / subme=8 / psy=1 / psy_rd=1.00:0.00 / mixed_ref=1 / me_range=16 / chroma_me=1 / trellis=2 / 8x8dct=1 / cqm=0 / deadzone=21,11 / fast_pskip=0 / chroma_qp_offset=-2 / threads=24 / lookahead_threads=4 / sliced_threads=0 / nr=0 / decimate=1 / interlaced=0 / bluray_compat=0 / constrained_intra=0 / bframes=5 / b_pyramid=2 / b_adapt=1 / b_bias=0 / direct=3 / weightb=1 / open_gop=0 / weightp=1 / keyint=250 / keyint_min=23 / scenecut=40 / intra_refresh=0 / rc_lookahead=40 / rc=2pass / mbtree=1 / bitrate=9556 / ratetol=1.0 / qcomp=0.60 / qpmin=0 / qpmax=69 / qpstep=4 / cplxblur=20.0 / qblur=0.5 / ip_ratio=1.40 / aq=1:1.00
  • Language                                 : English
  • Default                                  : Yes
  • Forced                                   : No
  • Audio
  • ID                                       : 2
  • Format                                   : AC-3
  • Format/Info                              : Audio Coding 3
  • Commercial name                          : Dolby Digital
  • Codec ID                                 : A_AC3
  • Duration                                 : 1 h 16 min
  • Bit rate mode                            : Constant
  • Bit rate                                 : 640 kb/s
  • Channel(s)                               : 6 channels
  • Channel layout                           : L R C LFE Ls Rs
  • Sampling rate                            : 48.0 kHz
  • Frame rate                               : 31.250 FPS (1536 SPF)
  • Bit depth                                : 16 bits
  • Compression mode                         : Lossy
  • Stream size                              : 351 MiB (6%)
  • Language                                 : English
  • Service kind                             : Complete Main
  • Default                                  : Yes
  • Forced                                   : No
    ' G% g# Z7 Z. ]# _* m; V$ V. }% X

- G& w/ D% @& u0 L- a3 C1 h; U$ X1 r! A3 n: v! e1 p

& w+ n& w+ P! A* y7 }) p; j% e9 g# F, V$ _
精彩剧照
+ j( t0 e+ Z1 [* N/ \$ c* ] 圣诞夜惊魂/怪诞城之夜 The.Nightmare.Before.Christmas.1993.3D.1080p.BluRay.x264-GUACAMOLE 5.46GB-1.png 2 l+ q0 Y* v7 b. v8 c
7 z7 D6 a0 R0 F" _4 B( h

/ s9 U0 y5 _6 W$ t7 z8 o8 I* Z. y% ~8 ?5 ^" y8 S$ w
2 h# a5 F+ J& b
6 e. X1 {2 ?! \

: [( w& ~: \& ?7 A9 g/ K9 t: A6 J蓝光高清网提示您  点击下方附件名称  马上开始下载
: k  m$ K# R! N2 ^$ ]3 m8 |9 h+ D* o- y/ `+ x+ C+ w

% l5 Q) U9 |) v: e& r0 O) _ The.Nightmare.Before.Christmas.1993.3D.1080p.BluRay.x264-GUACAMOLE.torrent (28.11 KB, 下载次数: 8)

加入蓝光高清网VIP会员  无限制下载本站所有资源---点此加入

资源下载、资源播放、字幕使用、无法下载等常见问题---点这里

回复

使用道具 举报

精彩评论1

yanggun 发表于 2019-12-31 08:09:49 | 显示全部楼层
不知道泽阳~~

加入蓝光高清网VIP会员  无限制下载本站所有资源---点此加入

资源下载、资源播放、字幕使用、无法下载等常见问题---点这里

回复

使用道具 举报

懒得打字嘛,点击右侧快捷回复
您需要登录后才可以回帖 登录 | 立即注册

本版积分规则

关注0

粉丝0

帖子71945

发布主题
最新电影 论坛
本期活动
联系我们
点击这里联系客服

服务时间:
周一到周日8:00-23:30

  • 打开微信扫一扫
    关注公众号

  • 手机QQ扫一扫
    添加客服

Archiver手机版蓝光高清网 ( 渝ICP备18006373号-2 )|网站地图

Powered by Discuz! X3.4  © 2001-2013 Comsenz Inc.