[人文地理片] 国家地理:远征南极4k Expedition.Antarctica.S01.2160p.WEBRip.AAC2.0.x264纪录片

[复制链接]
蓝鸟 发表于 2019-12-26 00:22:35 | 显示全部楼层 |阅读模式 打印 上一主题 下一主题
本帖最后由 蓝鸟 于 2019-12-26 00:23 编辑

电影封面:

国家地理:远征南极4k Expedition.Antarctica.S01.2160p.WEBRip.AAC2.0.x264纪录片

国家地理:远征南极4k Expedition.Antarctica.S01.2160p.WEBRip.AAC2.0.x264纪录片
片  名:
国家地理:远征南极4k
电影分类:
纪录片   
国  家:
美国   
年  代:
00年代   
分 辨 率:
4K(3840x2160)   
电影格式:
MKV|REMUX   
画质标准:
其他
音质编码:
电影声道:
其他
电影语言:
英文原版     
资源大小:
12.98 GB
导  演:


国家地理:远征南极4k Expedition.Antarctica.S01.2160p.WEBRip.AAC2.0.x264纪录片下载

  • Video
  • ID : 1
  • Format : AVC
  • Format/Info : Advanced Video Codec
  • Format profile : High@L5.1
  • Format settings : CABAC / 5 Ref Frames
  • Format settings, CABAC : Yes
  • Format settings, ReFrames : 5 frames
  • Codec ID : V_MPEG4/ISO/AVC
  • Duration : 53 min 13 s
  • Bit rate : 17.7 Mb/s
  • Width : 3 840 pixels
  • Height : 2 160 pixels
  • Display aspect ratio : 16:9
  • Frame rate mode : Constant
  • Frame rate : 23.976 (24000/1001) FPS
  • Color space : YUV
  • Chroma subsampling : 4:2:0
  • Bit depth : 8 bits
  • Scan type : Progressive
  • Bits/(Pixel*Frame) : 0.089
  • Stream size : 6.58 GiB (99%)
  • Writing library : x264 core 157 r2969 d4099dd
  • Encoding settings : cabac=1 / ref=5 / deblock=1:0:0 / analyse=0x3:0x113 / me=umh / subme=8 / psy=1 / psy_rd=1.00:0.00 / mixed_ref=1 / me_range=16 / chroma_me=1 / trellis=2 / 8x8dct=1 / cqm=0 / deadzone=21,11 / fast_pskip=1 / chroma_qp_offset=-2 / threads=12 / lookahead_threads=2 / sliced_threads=0 / nr=0 / decimate=1 / interlaced=0 / bluray_compat=0 / constrained_intra=0 / bframes=3 / b_pyramid=2 / b_adapt=1 / b_bias=0 / direct=3 / weightb=1 / open_gop=0 / weightp=2 / keyint=250 / keyint_min=23 / scenecut=40 / intra_refresh=0 / rc_lookahead=50 / rc=crf / mbtree=1 / crf=20.5 / qcomp=0.60 / qpmin=0 / qpmax=69 / qpstep=4 / ip_ratio=1.40 / aq=1:1.00
  • Language : English
  • Default : Yes
  • Forced : No
  • Color range : Limited
  • Matrix coefficients : BT.709
  • Audio
  • ID : 2
  • Format : AAC LC
  • Format/Info : Advanced Audio Codec Low Complexity
  • Codec ID : A_AAC-2
  • Duration : 53 min 13 s
  • Bit rate : 192 kb/s
  • Channel(s) : 2 channels
  • Channel layout : L R
  • Sampling rate : 44.1 kHz
  • Frame rate : 43.066 FPS (1024 SPF)
  • Compression mode : Lossy
  • Stream size : 72.2 MiB (1%)
  • Language : English
  • Default : Yes
  • Forced : No
  • Text
  • ID : 3
  • Format : UTF-8
  • Codec ID : S_TEXT/UTF8
  • Codec ID/Info : UTF-8 Plain Text
  • Duration : 52 min 43 s
  • Bit rate : 69 b/s
  • Count of elements : 769
  • Stream size : 26.9 KiB (0%)
  • Language : English
  • Default : No
  • Forced : No

国家地理:远征南极 第一季4k Expedition.Antarctica.S01.2160p.WEBRip.AAC2.0.x264【4K  2160p 12.98GB】

国家地理:远征南极4k Expedition.Antarctica.S01.2160p.WEBRip.AAC2.0.x264-TViLLAGE.torrent 
         (65.55 KB    阅读权限: 0    售价: 20 高清币)


加入蓝光高清网VIP会员  无限制下载本站所有资源---点这里

资源下载、资源播放、字幕使用、无法下载等常见问题---点这里
回复

使用道具 举报

精彩评论13

21special2 发表于 2019-12-26 06:41:14 | 显示全部楼层
希望蓝光高清网越来越好
回复

使用道具 举报

贞德001 发表于 2019-12-26 07:42:25 | 显示全部楼层
等好久这个资源了
回复

使用道具 举报

zoomn 发表于 2019-12-26 07:53:05 | 显示全部楼层
sssssssssssssssssss
回复

使用道具 举报

zwither 发表于 2019-12-26 07:53:05 | 显示全部楼层
蓝光高清网是个好地方
回复

使用道具 举报

36427666 发表于 2019-12-26 08:54:06 | 显示全部楼层
楼主幸苦了
回复

使用道具 举报

风雨中行走 发表于 2019-12-26 09:09:21 | 显示全部楼层
下载来看看
回复

使用道具 举报

匿名  发表于 2019-12-27 04:15:31


2019-12-27

03:59:44
回复

使用道具

oyyoll 发表于 2020-1-13 18:40:42 | 显示全部楼层
希望蓝光高清网越来越好
回复

使用道具 举报

kanlyter 发表于 2020-1-25 23:08:56 | 显示全部楼层

收藏了  谢谢
回复

使用道具 举报

您需要登录后才可以回帖 登录 | 立即注册

本版积分规则

关注0

粉丝1

帖子86440

发布主题
最新电影 论坛
本期活动
联系我们
点击这里联系客服

服务时间:
周一到周日8:00-23:30

  • 打开微信扫一扫
    关注公众号

  • 手机QQ扫一扫
    添加客服

手机版蓝光高清网 |网站地图

Powered by Discuz! X3.4 Licensed  © 2001-2013 Comsenz Inc.