[动作] 第一滴血5:最后的血 Rambo.Last.Blood.2019.EXTENDED.1080p.BluRay.x264.DTS-HD.MA.5.1-FGT 10.03GB

[复制链接]
蓝鸟 发表于 2020-1-4 13:04:17 | 显示全部楼层 |阅读模式 打印 上一主题 下一主题

第一滴血5:最后的血 Rambo.Last.Blood.2019.EXTENDED.1080p.BluRay.x264.DTS-HD.MA.5.1-FGT 10.03GB ...

第一滴血5:最后的血 Rambo.Last.Blood.2019.EXTENDED.1080p.BluRay.x264.DTS-HD.MA.5.1-FGT 10.03GB ...


译  名 第一滴血5:最后的血 / Rambo 5 / Rambo 5: Last Blood / Rambo V / Rambo V: Last Blood / 兰博5:最后一滴血 / 第一滴血5 / 第一滴血:最后一战 / 第一滴血:终极血战(港) / 蓝波:最后一滴血(台)
片  名 Rambo: Last Blood
年  代 2019
产  地 美国
类  别 动作 / 惊悚 / 冒险
语  言 英语
上映日期 2019-09-20(美国)
IMDb评分  6.7/10 from 23992 users
IMDb链接  https://www.imdb.com/title/tt1206885
豆瓣评分 7.6/10 from 1217 users
豆瓣链接 https://movie.douban.com/subject/10546436/
片  长 89分钟
导  演 阿德里安·格鲁伯格 Adrian Grunberg
编  剧 马修·西鲁尼克 Matthew Cirulnick / 大卫·莫瑞尔 David Morrell / 西尔维斯特·史泰龙 Sylvester Stallone
主  演 西尔维斯特·史泰龙 Sylvester Stallone
       帕斯·贝加 Paz Vega
       路易·曼迪勒 Louis Mandylor
       奥斯卡·贾恩那达 óscar Jaenada
       维特·蒙雷尔 Yvette Monreal
       华金·科西奥 Joaquín Cosio
       杰西卡·马德森 Jessica Madsen
       艾德里安娜·巴拉扎 Adriana Barraza
       塞尔吉奥·佩里斯-门切塔 Sergio Peris-Mencheta
       阿塔纳斯·斯雷布雷夫 Atanas Srebrev
       尼克·威特曼 Nick Wittman


标  签 动作 | 硬汉 | 美国 | 经典 | 暴力 | 战争 | 血腥 | 2019

简  介  

  西尔维斯特·史泰龙回归[第一滴血5],并有望执导。除主演外,据悉史泰龙将操刀剧本,故事围绕兰博为营救朋友之女与墨西哥毒枭展开殊死搏斗展开。制片艾威·勒纳([敢死队]系列)。该系列首部于1982年上映,2008年史泰龙曾自导自演[第一滴血4]。[第一滴血5]将在本届戛纳电影节预售,9月开拍。


该资源信息参数
  1. Video
  2. ID                                       : 1
  3. Format                                   : AVC
  4. Format/Info                              : Advanced Video Codec
  5. Format profile                           : High@L4
  6. Format settings                          : CABAC / 4 Ref Frames
  7. Format settings, CABAC                   : Yes
  8. Format settings, Reference frames        : 4 frames
  9. Codec ID                                 : V_MPEG4/ISO/AVC
  10. Duration                                 : 1 h 40 min
  11. Bit rate                                 : 11.5 Mb/s
  12. Width                                    : 1 920 pixels
  13. Height                                   : 804 pixels
  14. Display aspect ratio                     : 2.40:1
  15. Frame rate mode                          : Constant
  16. Frame rate                               : 23.976 (24000/1001) FPS
  17. Color space                              : YUV
  18. Chroma subsampling                       : 4:2:0
  19. Bit depth                                : 8 bits
  20. Scan type                                : Progressive
  21. Bits/(Pixel*Frame)                       : 0.311
  22. Stream size                              : 8.05 GiB (80%)
  23. Title                                    : Rambo.Last.Blood.2019.EXTENDED.1080p.BluRay.x264.DTS-HD.MA.5.1-FGT
  24. Writing library                          : x264 core 148 r2748 97eaef2
  25. Encoding settings                        : cabac=1 / ref=4 / deblock=1:-2:-2 / analyse=0x3:0x113 / me=umh / subme=9 / psy=1 / psy_rd=1.00:0.15 / mixed_ref=1 / me_range=16 / chroma_me=1 / trellis=2 / 8x8dct=1 / cqm=0 / deadzone=21,11 / fast_pskip=1 / chroma_qp_offset=-3 / threads=72 / lookahead_threads=3 / sliced_threads=0 / nr=0 / decimate=1 / interlaced=0 / bluray_compat=0 / constrained_intra=0 / bframes=3 / b_pyramid=2 / b_adapt=1 / b_bias=0 / direct=3 / weightb=1 / open_gop=0 / weightp=2 / keyint=250 / keyint_min=25 / scenecut=40 / intra_refresh=0 / rc_lookahead=50 / rc=2pass / mbtree=1 / bitrate=11500 / ratetol=1.0 / qcomp=0.60 / qpmin=0 / qpmax=69 / qpstep=4 / cplxblur=20.0 / qblur=0.5 / vbv_maxrate=31250 / vbv_bufsize=31250 / nal_hrd=none / filler=0 / ip_ratio=1.40 / aq=1:1.00
  26. Language                                 : English
  27. Default                                  : Yes
  28. Forced                                   : No

  29. Audio
  30. ID                                       : 2
  31. Format                                   : DTS XLL
  32. Format/Info                              : Digital Theater Systems
  33. Commercial name                          : DTS-HD Master Audio
  34. Codec ID                                 : A_DTS
  35. Duration                                 : 1 h 40 min
  36. Bit rate mode                            : Variable
  37. Bit rate                                 : 2 807 kb/s
  38. Channel(s)                               : 6 channels
  39. Channel layout                           : C L R Ls Rs LFE
  40. Sampling rate                            : 48.0 kHz
  41. Frame rate                               : 93.750 FPS (512 SPF)
  42. Bit depth                                : 16 bits
  43. Compression mode                         : Lossless
  44. Stream size                              : 1.97 GiB (20%)
  45. Title                                    : Rambo.Last.Blood.2019.EXTENDED.1080p.BluRay.x264.DTS-HD.MA.5.1-FGT
  46. Language                                 : English
  47. Default                                  : Yes
  48. Forced                                   : No

  49. Text #1
  50. ID                                       : 3
  51. Format                                   : UTF-8
  52. Codec ID                                 : S_TEXT/UTF8
  53. Codec ID/Info                            : UTF-8 Plain Text
  54. Duration                                 : 1 h 29 min
  55. Bit rate                                 : 30 b/s
  56. Count of elements                        : 748
  57. Stream size                              : 20.0 KiB (0%)
  58. Title                                    : English-SRT
  59. Language                                 : English
  60. Default                                  : Yes
  61. Forced                                   : No

  62. Text #2
  63. ID                                       : 4
  64. Format                                   : PGS
  65. Muxing mode                              : zlib
  66. Codec ID                                 : S_HDMV/PGS
  67. Codec ID/Info                            : Picture based subtitle format used on BDs/HD-DVDs
  68. Duration                                 : 1 h 33 min
  69. Bit rate                                 : 23.6 kb/s
  70. Count of elements                        : 2107
  71. Stream size                              : 15.8 MiB (0%)
  72. Title                                    : English-PGS
  73. Language                                 : English
  74. Default                                  : No
  75. Forced                                   : No

  76. Menu
  77. 00:00:00.000                             : en:Chapter 1
  78. 00:08:30.343                             : en:Chapter 2
  79. 00:18:18.556                             : en:Chapter 3
  80. 00:25:01.667                             : en:Chapter 4
  81. 00:33:17.746                             : en:Chapter 5
  82. 00:42:54.405                             : en:Chapter 6
  83. 00:50:56.428                             : en:Chapter 7
  84. 00:59:35.947                             : en:Chapter 8
  85. 01:08:03.329                             : en:Chapter 9
  86. 01:15:21.684                             : en:Chapter 10
  87. 01:25:46.683                             : en:Chapter 11
  88. 01:33:41.533                             : en:Chapter 12
复制代码


精彩剧照

第一滴血5:最后的血 Rambo.Last.Blood.2019.EXTENDED.1080p.BluRay.x264.DTS-HD.MA.5.1-FGT 10.03GB ...

第一滴血5:最后的血 Rambo.Last.Blood.2019.EXTENDED.1080p.BluRay.x264.DTS-HD.MA.5.1-FGT 10.03GB ...

第一滴血5:最后的血 Rambo.Last.Blood.2019.EXTENDED.1080p.BluRay.x264.DTS-HD.MA.5.1-FGT 10.03GB ...

第一滴血5:最后的血 Rambo.Last.Blood.2019.EXTENDED.1080p.BluRay.x264.DTS-HD.MA.5.1-FGT 10.03GB ...

第一滴血5:最后的血 Rambo.Last.Blood.2019.EXTENDED.1080p.BluRay.x264.DTS-HD.MA.5.1-FGT 10.03GB ...

第一滴血5:最后的血 Rambo.Last.Blood.2019.EXTENDED.1080p.BluRay.x264.DTS-HD.MA.5.1-FGT 10.03GB ...



蓝光高清网提示您 点击下方附件名称 马上开始下载

Rambo.Last.Blood.2019.EXTENDED.1080p.BluRay.x264.DTS-HD.MA.5.1-FGT.torrent 
         (50.73 KB    阅读权限: 0)
加入蓝光高清网VIP会员  无限制下载本站所有资源---点这里

资源下载、资源播放、字幕使用、无法下载等常见问题---点这里
回复

使用道具 举报

精彩评论6

匿名  发表于 2020-2-2 23:39:23
谢谢提供下载赞赞
回复

使用道具

liuxu1006 发表于 2020-2-17 12:06:28 | 显示全部楼层
谢谢提供下载赞赞
回复

使用道具 举报

终生好朋友 发表于 2020-4-13 23:05:15 来自手机 | 显示全部楼层
精彩,过瘾!
回复

使用道具 举报

橄榄枝 发表于 2020-6-18 17:13:01 | 显示全部楼层
多谢楼主分享了
回复

使用道具 举报

lianyan1314 发表于 2020-8-11 22:25:24 | 显示全部楼层
都没速度啊。。。下不动。。。
回复

使用道具 举报

xìngfú 发表于 2020-8-17 18:56:16 | 显示全部楼层
非常感谢
!!!
回复

使用道具 举报

您需要登录后才可以回帖 登录 | 立即注册

本版积分规则

关注0

粉丝1

帖子88155

发布主题
最新电影 论坛
本期活动
联系我们
点击这里联系客服

服务时间:
周一到周日8:00-23:30

  • 打开微信扫一扫
    关注公众号

  • 手机QQ扫一扫
    添加客服

手机版蓝光高清网 |网站地图

Powered by Discuz! X3.4 Licensed  © 2001-2013 Comsenz Inc.