鬼影特攻:以暴制暴
4K 
6.2
  • 年代: 2019年
  • 国家/地区: 美国
  • 类型: 动作 惊悚 
  • 导演: 迈克尔·贝
  • 音轨: Dolby Atmos 
  • 时长: 128分钟
  • 主演:瑞恩·雷诺兹 / 本·哈迪 / 梅拉尼·罗兰 / 亚德里亚·霍纳 / 戴夫·弗兰科
特别声明:本站提供的所有高清电影作品均是在网上搜集,任何涉及商业盈利目的均不得使用,否则产生的一切后果将由您自己承担!本站将不对本站的任何内容负任何法律责任!该下载内容仅做宽带测试使用,请在下载后24小时内删除。请购买正版! 本站所有资源均由网上收集而来,版权归原影音公司所有,如果侵犯了你的权益,请通知我们,我们会及时删除侵权内容.

鬼影特攻:以暴制暴 4K.6.Underground.2019.2160p.NF.WEBRip.DDP5.1.Atmos-41.16 GB

[复制链接]
蓝鸟VIP会员 永久VIP 发表于 2020-1-4 16:14:12 | 显示全部楼层 |阅读模式 打印 上一主题 下一主题

马上注册,轻松下载,海量资源,让你轻松玩转社区。

您需要 登录 才可以下载或查看,没有帐号?立即注册

x
本帖最后由 蓝鸟 于 2020-1-4 16:16 编辑 . r% w  R" x8 V% R
4 U8 K( e  E/ y
简      介
0 W6 |! I, V; z7 n1 |1 Q# @+ h" v2 r$ z$ w- r2 C# s
  来自世界各地的六人,个个都是各自领域的佼佼者。他们之所以被选中,不单是因为能力出众,还在于其独特的志向:他们想抹杀自己的过去以改变未来。一位神秘的领袖(瑞恩·雷诺兹饰)将他们召集到一起组成了这个团队,他毕生唯一的使命就是确保即使他和自己的同伴会被遗忘,但也要让人们永远铭记他们所做的一切
/ K8 c, D  I- u
3 C3 |0 Q2 \( L
& h' e& W5 I5 x2 ~2 P8 {' \
+ M$ d8 v1 w- J* y! Q) j! o

8 ?. D0 t- Z0 \( \6 M) i# }) F; H  f影片参数
7 l- Z) r' {) q; S/ m# N( c/ g# V% b' E. ]- r1 ^8 C% e8 H" ?
. {2 a. ?2 S% x1 R+ [) p
地下6号/六尺之下 / 飞天遁地/Six Underground/鬼影特攻:以暴制暴 4K.6.Underground.2019.2160p.NF.WEBRip.DDP5.1.Atmos.x264-电影信息
. ~8 y" J; P; \0 e" q) h# KVideo
1 J- j: @' J# w  L7 p$ kID : 1
5 g, s. D" W( ]5 U) bFormat : AVC
& Y2 i& m/ Z. T$ t+ rFormat/Info : Advanced Video Codec
1 N: `! Y% a9 h4 T& J+ N( |; hFormat profile : High@L5.1
& ?0 m7 t/ |" qFormat settings : CABAC / 7 Ref Frames
) `1 v5 q; v6 v4 B! T% v7 \) RFormat settings, CABAC : Yes
) s/ z. O+ V6 JFormat settings, Reference frames : 7 frames
9 X% t( N% N1 J$ r! j& nCodec ID : V_MPEG4/ISO/AVC
& Z* J, w7 w4 O# PDuration : 2 h 8 min1 A$ z4 V: G- H- _
Bit rate : 44.9 Mb/s3 M8 M; |( X" q
Width : 3 840 pixels, Y9 T/ C0 C$ ]
Height : 1 604 pixels" v3 V! ^6 d& J/ o! `
Display aspect ratio : 2.40:18 u8 A8 Y, k% c8 E3 R
Frame rate mode : Constant9 N0 j9 {$ O/ e3 q6 |, L
Frame rate : 23.976 (24000/1001) FPS
' s& f; Z8 v6 i8 _+ LColor space : YUV/ w! T7 v  t0 b2 S% o
Chroma subsampling : 4:2:0
0 z: ~. G8 s$ o* X" OBit depth : 8 bits
5 @/ E8 d6 t" }" l# L7 u; Q% W) g! o# mScan type : Progressive& s8 O" N5 }2 C4 ]5 U4 p
Bits/(Pixel*Frame) : 0.304
5 D4 F1 {. m( f. C- UStream size : 40.5 GiB (98%)  ^9 e% n( ]# ?. ?; Y- t/ `) C
Writing library : x264 core 158 r2984 3759fcb
; D# N- e! i" [& S. s: z) jEncoding settings : cabac=1 / ref=7 / deblock=1:-3:-3 / analyse=0x3:0x133 / me=umh / subme=10 / psy=1 / psy_rd=1.00:0.00 / mixed_ref=1 / me_range=48 / chroma_me=1 / trellis=2 / 8x8dct=1 / cqm=0 / deadzone=21,11 / fast_pskip=0 / chroma_qp_offset=-2 / threads=24 / lookahead_threads=4 / sliced_threads=0 / nr=0 / decimate=0 / interlaced=0 / bluray_compat=0 / constrained_intra=0 / bframes=8 / b_pyramid=2 / b_adapt=2 / b_bias=0 / direct=3 / weightb=1 / open_gop=0 / weightp=2 / keyint=250 / keyint_min=23 / scenecut=40 / intra_refresh=0 / rc=crf / mbtree=0 / crf=20.0 / qcomp=0.60 / qpmin=0 / qpmax=69 / qpstep=4 / ip_ratio=1.30 / pb_ratio=1.20 / aq=3:0.80
% g  D# |* t  T2 f2 Z& KDefault : Yes
, p+ P* l$ W) SForced : No3 H+ S* t7 R0 f  h7 S2 ^
1 E* e) d6 L1 W; \
2 N* p9 K) ?4 j/ b
Audio" @3 k5 N) A/ K2 X9 S9 a' Z: b
ID : 25 |8 I! g6 p; m0 c0 i
Format : E-AC-3 JOC
0 {7 H0 _. X: T' i7 zFormat/Info : Enhanced AC-3 with Joint Object Coding
/ @- G# Z5 x9 B0 ?" M6 m9 I' ^1 J! wCommercial name : Dolby Digital Plus with Dolby Atmos* ]3 F& }& \. \, \4 k
Codec ID : A_EAC3
' m4 T7 N2 s+ P, b, V$ g: Q/ iDuration : 2 h 8 min
' d; t" s% C' Z4 n4 b  EBit rate mode : Constant
5 z3 c( K( o3 @Bit rate : 768 kb/s9 _" j4 F. C  G% l+ Z7 w
Channel(s) : 6 channels
* p! o; H2 r+ R: P( c& kChannel layout : L R C LFE Ls Rs
/ B8 D2 k2 Q5 K0 hSampling rate : 48.0 kHz# \- D  e$ L3 E& E9 T! n# N
Frame rate : 31.250 FPS (1536 SPF)
) E$ `! \, Z: z9 x6 U: QCompression mode : Lossy
4 C' b2 n. Q7 m, P1 H  wStream size : 708 MiB (2%)
* Y6 C5 h) v4 [. E; z7 q4 L, B6 wTitle : English
! r  f. N: }) qLanguage : English2 @8 b; R7 ?/ j3 G% {
Service kind : Complete Main. R+ ^$ k4 G  @
Default : Yes
$ n/ H6 t: K7 c& G; LForced : No' `- f: d3 q% ]9 l* c' T
Complexity index : 16
) |3 j$ E+ ~& r& J0 nNumber of dynamic objects : 154 v, \# W5 C9 ^; Z& F
Bed channel count : 1 channel
# g/ l6 Q, N' k6 F! ~) E* T( KBed channel configuration : LFE1 q1 ]$ z; N% O0 C( \* ^
. M  ~4 j+ Y4 d; d! c
. Q1 {. y% N3 C* l

0 d( @- `; j* F9 c7 Z% f4 z5 U; o1 F2 @! a) t! t
精彩剧照2 {, I' b7 `: C9 D) N( z( F/ X

- J- S# Z# y- |, p( L! K

鬼影特攻:以暴制暴 4K.6.Underground.2019.2160p.NF.WEBRip.DDP5.1.Atmos-41.16 GB

鬼影特攻:以暴制暴 4K.6.Underground.2019.2160p.NF.WEBRip.DDP5.1.Atmos-41.16 GB
/ B" c  ?2 O- O8 F) u5 m

, }) S! T+ o& X" }9 E

鬼影特攻:以暴制暴 4K.6.Underground.2019.2160p.NF.WEBRip.DDP5.1.Atmos-41.16 GB

鬼影特攻:以暴制暴 4K.6.Underground.2019.2160p.NF.WEBRip.DDP5.1.Atmos-41.16 GB

: ~; f( v- h' f3 r( m
- ?* S4 x  K5 |

鬼影特攻:以暴制暴 4K.6.Underground.2019.2160p.NF.WEBRip.DDP5.1.Atmos-41.16 GB

鬼影特攻:以暴制暴 4K.6.Underground.2019.2160p.NF.WEBRip.DDP5.1.Atmos-41.16 GB

4 N5 k% `1 Q: D
( x7 [8 W; r  F7 @- k/ o- z9 q

6 H; m$ l8 j2 ?* L& o
: z# y7 X: O0 ?- v* k

& G& H3 x6 s7 X, J( m$ w& G蓝光高清网提示您  点击下方附件名即可开始下载- v4 h: i; x& Y+ j; R( I! [
3 y0 I! S/ s- p# v9 ]& |2 ^" r
( `0 ^4 u0 `) j8 A7 m& V( y: X
鬼影特攻:以暴制暴 4K.6.Underground.2019.2160p.NF.WEBRip.DDP5.1.Atmos-41.16 GB

. i; c: |& q; E% u0 @ 鬼影特攻:以暴制暴4K.6.Underground.2019.2160p.NF.WEBRip.DDP5.1.Atmos.x264-.torre.torrent (103.44 KB, 下载次数: 27)

加入蓝光高清网VIP会员  无限制下载本站所有资源---点此加入

资源下载、资源播放、字幕使用、无法下载等常见问题---点这里

回复

使用道具 举报

精彩评论46

幽冥小草 发表于 2020-1-4 17:07:01 | 显示全部楼层
楼主,我太崇拜你了!

加入蓝光高清网VIP会员  无限制下载本站所有资源---点此加入

资源下载、资源播放、字幕使用、无法下载等常见问题---点这里

回复

使用道具 举报

joey6268 发表于 2020-1-4 17:37:40 | 显示全部楼层
收藏了  谢谢

加入蓝光高清网VIP会员  无限制下载本站所有资源---点此加入

资源下载、资源播放、字幕使用、无法下载等常见问题---点这里

回复

使用道具 举报

riversnow 发表于 2020-1-4 17:47:51 | 显示全部楼层
哈哈 谢谢 谢谢

加入蓝光高清网VIP会员  无限制下载本站所有资源---点此加入

资源下载、资源播放、字幕使用、无法下载等常见问题---点这里

回复

使用道具 举报

hovo 发表于 2020-1-4 17:58:27 | 显示全部楼层
楼主发贴辛苦了,谢谢楼主分享!

加入蓝光高清网VIP会员  无限制下载本站所有资源---点此加入

资源下载、资源播放、字幕使用、无法下载等常见问题---点这里

回复

使用道具 举报

小野草 发表于 2020-1-4 18:39:33 | 显示全部楼层
终于找到了  谢谢分享

加入蓝光高清网VIP会员  无限制下载本站所有资源---点此加入

资源下载、资源播放、字幕使用、无法下载等常见问题---点这里

回复

使用道具 举报

huyang180 发表于 2020-1-4 21:58:59 | 显示全部楼层
不管怎么说就是支持,感谢版主的无私付出

加入蓝光高清网VIP会员  无限制下载本站所有资源---点此加入

资源下载、资源播放、字幕使用、无法下载等常见问题---点这里

回复

使用道具 举报

wangfeide4k 发表于 2020-1-4 22:33:10 | 显示全部楼层
11111111111111111

加入蓝光高清网VIP会员  无限制下载本站所有资源---点此加入

资源下载、资源播放、字幕使用、无法下载等常见问题---点这里

回复

使用道具 举报

kangel2 发表于 2020-1-4 22:50:27 | 显示全部楼层
帮帮顶顶!!

加入蓝光高清网VIP会员  无限制下载本站所有资源---点此加入

资源下载、资源播放、字幕使用、无法下载等常见问题---点这里

回复

使用道具 举报

liq 发表于 2020-1-4 23:01:15 | 显示全部楼层
楼主发贴辛苦了,谢谢楼主分享!

加入蓝光高清网VIP会员  无限制下载本站所有资源---点此加入

资源下载、资源播放、字幕使用、无法下载等常见问题---点这里

回复

使用道具 举报

懒得打字嘛,点击右侧快捷回复
您需要登录后才可以回帖 登录 | 立即注册

本版积分规则

关注0

粉丝0

帖子72186

发布主题
最新电影 论坛
本期活动
联系我们
点击这里联系客服

服务时间:
周一到周日8:00-23:30

  • 打开微信扫一扫
    关注公众号

  • 手机QQ扫一扫
    添加客服

Archiver手机版蓝光高清网 ( 渝ICP备18006373号-2 )|网站地图

Powered by Discuz! X3.4  © 2001-2013 Comsenz Inc.