鬼影特攻:以暴制暴
4K 
6.2
  • 年代: 2019年
  • 国家/地区: 美国
  • 类型: 动作 惊悚 
  • 导演: 迈克尔·贝
  • 音轨: Dolby Atmos 
  • 时长: 128分钟
  • 主演:瑞恩·雷诺兹 / 本·哈迪 / 梅拉尼·罗兰 / 亚德里亚·霍纳 / 戴夫·弗兰科
特别声明:本站提供的所有高清电影作品均是在网上搜集,任何涉及商业盈利目的均不得使用,否则产生的一切后果将由您自己承担!本站将不对本站的任何内容负任何法律责任!该下载内容仅做宽带测试使用,请在下载后24小时内删除。请购买正版! 本站所有资源均由网上收集而来,版权归原影音公司所有,如果侵犯了你的权益,请通知我们,我们会及时删除侵权内容.

鬼影特攻:以暴制暴 4K.6.Underground.2019.2160p.NF.WEBRip.DDP5.1.Atmos-41.16 GB

[复制链接]
蓝鸟 发表于 2020-1-4 16:14:12 | 显示全部楼层 |阅读模式 打印 上一主题 下一主题
本帖最后由 蓝鸟 于 2020-1-4 16:16 编辑
# T1 i) D* K/ |! l, f& y" r" K; w* W" J% ~7 e; a: w1 L) h7 V# S
简      介. \1 B2 q  d' `3 E0 e8 a" C
$ ~: ~+ A2 [: T9 X
  来自世界各地的六人,个个都是各自领域的佼佼者。他们之所以被选中,不单是因为能力出众,还在于其独特的志向:他们想抹杀自己的过去以改变未来。一位神秘的领袖(瑞恩·雷诺兹饰)将他们召集到一起组成了这个团队,他毕生唯一的使命就是确保即使他和自己的同伴会被遗忘,但也要让人们永远铭记他们所做的一切
2 j: M: e+ _) i3 |5 X! O/ `9 M
8 |% P* A1 r7 q
3 X9 a# O' d4 `' a( n, F( h
; m! N/ L, s) z
" _0 ]) r1 b1 {- u; G
影片参数
) P% Y! q1 b2 P; f: j
# _* H# _; H9 u1 v% d. t
5 l0 w  X& z* @3 k- S2 \  v+ I
地下6号/六尺之下 / 飞天遁地/Six Underground/鬼影特攻:以暴制暴 4K.6.Underground.2019.2160p.NF.WEBRip.DDP5.1.Atmos.x264-电影信息
% }; f9 E; E5 o( \Video
0 e4 f! r( i2 l) @% RID : 1# V( I* @; G: \5 i5 X& d' s. K
Format : AVC- p2 b6 \1 I/ ]5 M2 w" c, F3 M
Format/Info : Advanced Video Codec
3 C! q" I8 K! OFormat profile : High@L5.1* U! E/ ?( w" n0 D( A4 }
Format settings : CABAC / 7 Ref Frames" m0 f& I. f$ ?* u; k, c7 l& }
Format settings, CABAC : Yes
/ }8 b& y* f" Y& }; jFormat settings, Reference frames : 7 frames
$ @1 [5 S' W; nCodec ID : V_MPEG4/ISO/AVC
. w% o% Q# D# J- MDuration : 2 h 8 min5 h2 C$ K$ D  a1 n2 {
Bit rate : 44.9 Mb/s
, f1 X" U  P6 `$ y2 |$ HWidth : 3 840 pixels1 Q2 z( o, }9 }& c
Height : 1 604 pixels
" R" s* ]$ A: I6 S  _' A8 R& N: BDisplay aspect ratio : 2.40:1- M& K/ ]( R: t1 I- J
Frame rate mode : Constant
2 j( y) |6 m. \2 E8 M4 ^Frame rate : 23.976 (24000/1001) FPS
6 U) F$ V& Z: c$ @, _4 q  y& |( uColor space : YUV
8 P- \- w/ B9 M. a$ Q$ M. ?& OChroma subsampling : 4:2:0
" Z9 L, [  p. R9 ~Bit depth : 8 bits
# }9 O! a: L; z; O% L3 V; `Scan type : Progressive
# v6 s3 |3 W( m6 G" jBits/(Pixel*Frame) : 0.304
, [  w+ \! B, h% x5 D* _: JStream size : 40.5 GiB (98%)' h0 q- V; p# i; K" ]
Writing library : x264 core 158 r2984 3759fcb& \  s+ H4 [6 D$ l( j3 `
Encoding settings : cabac=1 / ref=7 / deblock=1:-3:-3 / analyse=0x3:0x133 / me=umh / subme=10 / psy=1 / psy_rd=1.00:0.00 / mixed_ref=1 / me_range=48 / chroma_me=1 / trellis=2 / 8x8dct=1 / cqm=0 / deadzone=21,11 / fast_pskip=0 / chroma_qp_offset=-2 / threads=24 / lookahead_threads=4 / sliced_threads=0 / nr=0 / decimate=0 / interlaced=0 / bluray_compat=0 / constrained_intra=0 / bframes=8 / b_pyramid=2 / b_adapt=2 / b_bias=0 / direct=3 / weightb=1 / open_gop=0 / weightp=2 / keyint=250 / keyint_min=23 / scenecut=40 / intra_refresh=0 / rc=crf / mbtree=0 / crf=20.0 / qcomp=0.60 / qpmin=0 / qpmax=69 / qpstep=4 / ip_ratio=1.30 / pb_ratio=1.20 / aq=3:0.804 u7 E2 Z/ [6 {/ x) S' ~% s
Default : Yes/ P$ A% A; M4 E; T
Forced : No! I% C- h+ T* Z% Y

0 R0 r; }1 c. e' P: D9 p

! N6 N& G, J  ]3 N* C3 ^Audio
3 s$ D6 _# ]  F; oID : 2
4 K1 X  k! ^7 SFormat : E-AC-3 JOC0 n7 v1 J" Y% ?6 r
Format/Info : Enhanced AC-3 with Joint Object Coding
9 D$ ^; z$ ?& R: H% fCommercial name : Dolby Digital Plus with Dolby Atmos1 I  }+ ~" L# w6 K8 l
Codec ID : A_EAC3
( n+ @0 l& g2 }Duration : 2 h 8 min1 {% N; L0 J6 I: t% B
Bit rate mode : Constant* K2 D  _1 _( e
Bit rate : 768 kb/s
7 s4 r; ~; l# R9 U! IChannel(s) : 6 channels
) W2 k' p! |  N3 z4 n0 Q: X9 P0 HChannel layout : L R C LFE Ls Rs; ~1 m4 ]' _9 ?) x5 B
Sampling rate : 48.0 kHz
0 a" f" ?) p+ O! |! w* qFrame rate : 31.250 FPS (1536 SPF)) m" a2 J: N' r. t/ y; R2 G- J: k
Compression mode : Lossy* w5 B/ _7 G& n& b3 w% I5 Z5 V
Stream size : 708 MiB (2%)
% o' w/ b' F6 {  ]$ N# |7 NTitle : English: m* d, I9 S' Q
Language : English$ ?  f% y! b2 u6 U+ M. G
Service kind : Complete Main
# A6 c* l& k, a8 \Default : Yes1 b1 N0 C  a/ f; f* Y, `
Forced : No
( l& }% Q8 h& ]  M9 A9 xComplexity index : 16
3 l& j$ F0 V. F% q( m* rNumber of dynamic objects : 157 d/ ^9 C/ C9 {
Bed channel count : 1 channel/ I; o2 ^# F/ o& z; ~
Bed channel configuration : LFE1 f/ R. C- n, H& X/ Z  L
, M1 D" w0 R9 B* O

- G4 R6 R' T. S9 k

  n6 a/ j( ^: v, T0 ?1 z  W
! p2 k2 f/ X" ?* u精彩剧照7 H' L) ?6 k( `/ T
! s* ]7 ^5 p1 l- n2 ]

鬼影特攻:以暴制暴 4K.6.Underground.2019.2160p.NF.WEBRip.DDP5.1.Atmos-41.16 GB

鬼影特攻:以暴制暴 4K.6.Underground.2019.2160p.NF.WEBRip.DDP5.1.Atmos-41.16 GB
3 q* ^8 `/ N8 G( ]4 M

: m: C& M- E# G/ M

鬼影特攻:以暴制暴 4K.6.Underground.2019.2160p.NF.WEBRip.DDP5.1.Atmos-41.16 GB

鬼影特攻:以暴制暴 4K.6.Underground.2019.2160p.NF.WEBRip.DDP5.1.Atmos-41.16 GB

% W) x# p, H( R* N. g9 V6 K5 ^% m- z. @( c$ x: x/ P. u

鬼影特攻:以暴制暴 4K.6.Underground.2019.2160p.NF.WEBRip.DDP5.1.Atmos-41.16 GB

鬼影特攻:以暴制暴 4K.6.Underground.2019.2160p.NF.WEBRip.DDP5.1.Atmos-41.16 GB
5 N: c- L' x! ]$ R

5 c5 N0 N" D; ]: }  _. ^* B

6 U6 g6 O6 n. [- h# u
7 d( a" V. _5 R) ~9 H' j2 O  S. A
; n2 G' ]- {+ Z2 B* ~* S. `3 I$ B
蓝光高清网提示您  点击下方附件名即可开始下载
5 H# Y6 b# `  t) E2 v
$ V+ a) w7 C* n3 x2 T3 k+ C! j5 Z! P  g
鬼影特攻:以暴制暴 4K.6.Underground.2019.2160p.NF.WEBRip.DDP5.1.Atmos-41.16 GB

+ w4 ]* L3 h. Z: m- I* n3 C 鬼影特攻:以暴制暴4K.6.Underground.2019.2160p.NF.WEBRip.DDP5.1.Atmos.x264-.torre.torrent 
         (103.44 KB    阅读权限: 20)
加入蓝光高清网VIP会员  无限制下载本站所有资源---点这里

资源下载、资源播放、字幕使用、无法下载等常见问题---点这里
回复

使用道具 举报

精彩评论52

幽冥小草 发表于 2020-1-4 17:07:01 | 显示全部楼层
楼主,我太崇拜你了!
回复

使用道具 举报

joey6268 发表于 2020-1-4 17:37:40 | 显示全部楼层
收藏了  谢谢
回复

使用道具 举报

riversnow 发表于 2020-1-4 17:47:51 | 显示全部楼层
哈哈 谢谢 谢谢
回复

使用道具 举报

hovo 发表于 2020-1-4 17:58:27 | 显示全部楼层
楼主发贴辛苦了,谢谢楼主分享!
回复

使用道具 举报

小野草 发表于 2020-1-4 18:39:33 | 显示全部楼层
终于找到了  谢谢分享
回复

使用道具 举报

huyang180 发表于 2020-1-4 21:58:59 | 显示全部楼层
不管怎么说就是支持,感谢版主的无私付出
回复

使用道具 举报

wangfeide4k 发表于 2020-1-4 22:33:10 | 显示全部楼层
11111111111111111
回复

使用道具 举报

kangel2 发表于 2020-1-4 22:50:27 | 显示全部楼层
帮帮顶顶!!
回复

使用道具 举报

liq 发表于 2020-1-4 23:01:15 | 显示全部楼层
楼主发贴辛苦了,谢谢楼主分享!
回复

使用道具 举报

您需要登录后才可以回帖 登录 | 立即注册

本版积分规则

关注0

粉丝1

帖子88153

发布主题
最新电影 论坛
本期活动
联系我们
点击这里联系客服

服务时间:
周一到周日8:00-23:30

  • 打开微信扫一扫
    关注公众号

  • 手机QQ扫一扫
    添加客服

手机版蓝光高清网 |网站地图

Powered by Discuz! X3.4 Licensed  © 2001-2013 Comsenz Inc.