游客您好
第三方账号登陆
  • 点击联系客服

    在线时间:9:00-18:00

    客服QQ

    1371333023

    电子邮件

    lanniao@1080pro.net
  • 烧友之家APP

    随时掌握烧友资讯

  • 扫描二维码

    关注微信公众号

推荐阅读
蓝鸟
未知星球 | 未知职业
  • 关注0
  • 粉丝2
  • 帖子93931
精选帖子
开启左侧

多哥 Togo.2019.2160p.DSNP.WEBRip.x265.10bit.HDR.DDP5.1.Atmos-TrollUHD 15.92GB

[复制链接]
蓝鸟 发表于 2020-1-8 08:46:33 | 显示全部楼层 |阅读模式 打印 上一主题 下一主题
多哥
上映时间:2019年
类型:剧情 
地区:美国 
导演:埃里克松·科尔
主演:威廉·达福 / 朱丽安妮·尼科尔森 / 克里斯托弗·赫耶达尔
画质标准:4K HDR  封装音轨:Dolby Atmos 
豆瓣评分:8.8分

加入蓝光高清网,轻松下载最新4k资源

您需要 登录 才可以下载或查看,没有帐号?立即注册

x
简  介  
2 }. p; U" c  O" X2 I* G& {
/ a: F5 y9 R" b  W! }  聚焦1925年雪橇手和雪橇犬齐心协力为拯救阿拉斯加州诺姆市孩子的性命而奔波于血清接力路上的事件,被称为“Great Race of Mercy”。本片将登陆迪士尼自家流媒体,2019年推出。; _+ L0 h$ v# f& m/ _0 @
  1924年年底,诺姆市一个2岁小孩生病,医生诊断其患有扁桃体炎,这种疾病通常不会有生命危险,然而这个小孩成为例外,接下来很多孩子都被诊断患上了扁桃体炎,有几个不幸离世,医生最终确认这种病症是白喉。当时有一种疫苗能够用来对付白喉,然后诺姆市的疫苗全部过期,新疫苗在港口关闭前却未能送达,来年6月波罗的海才会解冻,也没有公路直通诺姆市、没有飞机,唯一运输货物的通道是邮路,然而冬天只有雪橇犬能够通行。卫生局决定使用两组雪橇犬接力运输,20个雪橇手和150只雪橇犬必须日夜兼程,经过河流,跨过平原,穿过森林,穿越冰冻的阿拉斯加邮路。最近的疫苗所在地为南纳,距离诺姆市1085公里,一般情况下狗拉雪橇需要费时25日,而他们只花了5天半就成功完成接力,拯救了多名孩子的性命。, L3 g3 Y+ E6 R, u! v
  本片主角Togo是挪威赶雪橇高手Leonhard  Seppala(达福饰)使用的其中一只领头犬,因机智、卓越的领导力和敏锐的直觉备受称赞。Seppala被委任传送这场接力中最危险的一段,从诺姆到奴拉托接收那批免疫血清,在零下30度、七级以上强风的环境下成功完成了任务。之后南极探险家Roald Amundsen为Togo颁发了一枚金牌。
3 y/ o; j% P3 V4 V% y  h1 F2 D  比约恩饰演一名接力人员,在途中背叛了Seppala。3 o4 A( t9 ?. ]! W5 u
) r: m8 f& d7 m3 q
- `0 i4 M5 z8 y) T: Q% B
获奖情况  
( N7 M- E1 S( D* ^
* Q% |- S. e6 p8 \
  第72届美国编剧工会奖(2020)
7 M" i4 Z1 X4 H5 y! {+ \" X  电视奖 最佳原创剧本-长篇剧集(提名)
- x9 [/ |8 l! Q2 D4 Q, ?) d5 D6 m- G/ [2 b8 ^# t
& e) W9 @8 B5 r- e6 _/ l
影片参数
. z3 A! J: m  R" H' ^
  • Video
  • ID                                       : 1
  • Format                                   : HEVC
  • Format/Info                              : High Efficiency Video Coding
  • Format profile                           : Main 10@L5.1@High
  • Codec ID                                 : V_MPEGH/ISO/HEVC
  • Duration                                 : 1 h 53 min
  • Bit rate                                 : 19.0 Mb/s
  • Width                                    : 3 840 pixels
  • Height                                   : 1 920 pixels
  • Display aspect ratio                     : 2.000
  • Frame rate mode                          : Constant
  • Frame rate                               : 23.976 (24000/1001) FPS
  • Color space                              : YUV
  • Chroma subsampling                       : 4:2:0
  • Bit depth                                : 10 bits
  • Bits/(Pixel*Frame)                       : 0.107
  • Stream size                              : 15.0 GiB (94%)
  • Writing library                          : x265 3.2+23-52135ffd9bcd:[Windows][MSVC 1924][64 bit] 10bit
  • Encoding settings                        : cpuid=1111039 / frame-threads=4 / numa-pools=28,0 / wpp / no-pmode / no-pme / no-psnr / no-ssim / log-level=2 / input-csp=1 / input-res=3840x1920 / interlace=0 / total-frames=0 / level-idc=51 / high-tier=1 / uhd-bd=0 / ref=5 / no-allow-non-conformance / repeat-headers / annexb / no-aud / no-hrd / info / hash=0 / no-temporal-layers / open-gop / min-keyint=23 / keyint=250 / gop-lookahead=0 / bframes=8 / b-adapt=2 / b-pyramid / bframe-bias=0 / rc-lookahead=40 / lookahead-slices=0 / scenecut=40 / hist-scenecut=0 / radl=0 / no-splice / no-intra-refresh / ctu=64 / min-cu-size=8 / no-rect / no-amp / max-tu-size=32 / tu-inter-depth=3 / tu-intra-depth=3 / limit-tu=0 / rdoq-level=1 / dynamic-rd=0.00 / no-ssim-rd / signhide / no-tskip / nr-intra=0 / nr-inter=0 / no-constrained-intra / strong-intra-smoothing / max-merge=5 / limit-refs=0 / no-limit-modes / me=3 / subme=4 / merange=57 / temporal-mvp / no-frame-dup / no-hme / weightp / weightb / no-analyze-src-pics / deblock=0:0 / no-sao / no-sao-non-deblock / rd=6 / selective-sao=0 / no-early-skip / rskip / no-fast-intra / no-tskip-fast / no-cu-lossless / b-intra / no-splitrd-skip / rdpenalty=0 / psy-rd=4.00 / psy-rdoq=8.00 / no-rd-refine / no-lossless / cbqpoffs=0 / crqpoffs=0 / rc=crf / crf=12.0 / qcomp=0.60 / qpstep=4 / stats-write=0 / stats-read=0 / vbv-maxrate=160000 / vbv-bufsize=160000 / vbv-init=0.9 / crf-max=0.0 / crf-min=0.0 / ipratio=1.40 / pbratio=1.30 / aq-mode=2 / aq-strength=1.00 / cutree / zone-count=0 / no-strict-cbr / qg-size=32 / no-rc-grain / qpmax=69 / qpmin=0 / no-const-vbv / sar=0 / overscan=0 / videoformat=5 / range=0 / colorprim=9 / transfer=16 / colormatrix=9 / chromaloc=0 / display-window=0 / cll=0,0 / min-luma=0 / max-luma=1023 / log2-max-poc-lsb=8 / vui-timing-info / vui-hrd-info / slices=1 / no-opt-qp-pps / no-opt-ref-list-length-pps / no-multi-pass-opt-rps / scenecut-bias=0.05 / hist-threshold=0.01 / no-opt-cu-delta-qp / no-aq-motion / hdr / hdr-opt / no-dhdr10-opt / no-idr-recovery-sei / analysis-reuse-level=5 / scale-factor=0 / refine-intra=0 / refine-inter=0 / refine-mv=1 / refine-ctu-distortion=0 / no-limit-sao / ctu-info=0 / no-lowpass-dct / refine-analysis-type=0 / copy-pic=1 / max-ausize-factor=1.0 / no-dynamic-refine / no-single-sei / no-hevc-aq / no-svt / no-field / qp-adaptation-range=1.00 / no-scenecut-aware-qp
  • Default                                  : Yes
  • Forced                                   : No
  • Color range                              : Limited
  • Color primaries                          : BT.2020
  • Transfer characteristics                 : PQ
  • Matrix coefficients                      : BT.2020 non-constant
  • Audio
  • ID                                       : 2
  • Format                                   : E-AC-3 JOC
  • Format/Info                              : Enhanced AC-3 with Joint Object Coding
  • Commercial name                          : Dolby Digital Plus with Dolby Atmos
  • Codec ID                                 : A_EAC3
  • Duration                                 : 1 h 53 min
  • Bit rate mode                            : Constant
  • Bit rate                                 : 768 kb/s
  • Channel(s)                               : 6 channels
  • Channel layout                           : L R C LFE Ls Rs
  • Sampling rate                            : 48.0 kHz
  • Frame rate                               : 31.250 FPS (1536 SPF)
  • Compression mode                         : Lossy
  • Stream size                              : 621 MiB (4%)
  • Title                                    : English
  • Language                                 : English
  • Service kind                             : Complete Main
  • Default                                  : Yes
  • Forced                                   : No
  • Complexity index                         : 16
  • Number of dynamic objects                : 15
  • Bed channel count                        : 1 channel
  • Bed channel configuration                : LFE
  • Text #1
  • ID                                       : 3
  • Format                                   : UTF-8
  • Codec ID                                 : S_TEXT/UTF8
  • Codec ID/Info                            : UTF-8 Plain Text
  • Title                                    : English
  • Language                                 : English
  • Default                                  : No
  • Forced                                   : No
  • Text #2
  • ID                                       : 4
  • Format                                   : UTF-8
  • Codec ID                                 : S_TEXT/UTF8
  • Codec ID/Info                            : UTF-8 Plain Text
  • Title                                    : English [SDH]
  • Language                                 : English
  • Default                                  : No
  • Forced                                   : No
  • Text #3
  • ID                                       : 5
  • Format                                   : UTF-8
  • Codec ID                                 : S_TEXT/UTF8
  • Codec ID/Info                            : UTF-8 Plain Text
  • Title                                    : Dutch
  • Language                                 : Dutch
  • Default                                  : No
  • Forced                                   : No
  • Text #4
  • ID                                       : 6
  • Format                                   : UTF-8
  • Codec ID                                 : S_TEXT/UTF8
  • Codec ID/Info                            : UTF-8 Plain Text
  • Title                                    : French
  • Language                                 : French
  • Default                                  : No
  • Forced                                   : No
  • Text #5
  • ID                                       : 7
  • Format                                   : UTF-8
  • Codec ID                                 : S_TEXT/UTF8
  • Codec ID/Info                            : UTF-8 Plain Text
  • Title                                    : Spanish
  • Language                                 : Spanish
  • Default                                  : No
  • Forced                                   : No4 X- K* P2 H+ r: j8 T" c
* y) U+ M5 J- ]( n5 L7 F

7 \& S( }4 U" `* n7 j7 I: D! \
8 E0 v8 c% r6 _
9 o5 a- g6 W4 u+ _$ [7 A; F, y2 H. S/ b# F# n- f0 J6 v& W
精彩剧照
) H* l& T3 K& _; H" U4 ]/ m- Q$ r4 R* }
多哥 Togo.2019.2160p.DSNP.WEBRip.x265.10bit.HDR.DDP5.1.Atmos-TrollUHD 15.92GB-1.png 多哥 Togo.2019.2160p.DSNP.WEBRip.x265.10bit.HDR.DDP5.1.Atmos-TrollUHD 15.92GB-2.png 多哥 Togo.2019.2160p.DSNP.WEBRip.x265.10bit.HDR.DDP5.1.Atmos-TrollUHD 15.92GB-3.png
) Y& W1 `# T" m
6 _1 b) _" C- C; u0 k) ?. |& \% J7 F8 }4 l9 ]7 @2 O
) [, e" z0 j  N+ k' R
2 a7 z: e+ d1 P2 m
蓝光高清网提示您  点击下方附件名称  马上开始下载
1 X, C( h" p( u% F; l# v  @/ c4 O$ M
9 c. |' A6 Y6 R+ ^4 C) D
8 r- h* j! j- j. q$ ?7 j5 d! T

/ u$ L6 M( m/ O( O& s+ B: I

3 w+ @7 v: G1 \& v( E多哥 Togo.2019.2160p.DSNP.WEBRip.x265.10bit.HDR.DDP5.1.Atmos-TrollUHD 15.92GB# r+ `/ M& H% O9 \
Togo.2019.2160p.DSNP.WEBRip.x265.10bit.HDR.DDP5.1.Atmos-TrollUHD.torrent (文件大小:80.13 KB)
加入蓝光高清网VIP会员  无限制下载本站所有资源---点这里

资源下载、资源播放、字幕使用、无法下载等常见问题---点这里
回复

使用道具 举报

精彩评论34

dhw2006 发表于 2020-1-8 08:53:44 | 显示全部楼层
还是蓝光看起带劲 音效爆棚
回复 支持 反对

使用道具 举报

zYKXOGxg 发表于 2020-1-8 09:39:22 | 显示全部楼层
楼主,我太崇拜你了!
回复 支持 反对

使用道具 举报

suren.bai 发表于 2020-1-8 09:39:22 | 显示全部楼层
下载试一试
回复 支持 反对

使用道具 举报

可梦吧 发表于 2020-1-8 10:10:08 | 显示全部楼层
终于找到了  谢谢分享
回复 支持 反对

使用道具 举报

chang_xin 发表于 2020-1-8 12:38:38 | 显示全部楼层
谢谢分享
回复 支持 反对

使用道具 举报

圆月小侠 发表于 2020-1-8 13:15:05 | 显示全部楼层
谢谢版主 希望坚持下去 好资源
回复 支持 反对

使用道具 举报

shui24 发表于 2020-1-8 13:25:39 | 显示全部楼层
不错不错,楼主您辛苦了。。。
回复 支持 反对

使用道具 举报

1clown2 发表于 2020-1-8 13:40:51 | 显示全部楼层
蓝光高清网是个好地方
回复 支持 反对

使用道具 举报

wu13520 发表于 2020-1-8 15:53:24 | 显示全部楼层
路过,学习下
回复 支持 反对

使用道具 举报

您需要登录后才可以回帖 登录 | 立即注册

本版积分规则

烧友之家(蓝光高清网)本站内容部分由用户自主分享和转载自互联网,转载目的在于传递更多信息,并不代表本网赞同其观点和对其真实性负责。 如有侵权、违反国家法律政策行为,请联系我们,我们会第一时间及时清除和处理!
蓝光高清网 综合资讯平台
关注我们
  • 官方微信公众号
  • 扫码下载官方APP

X3.4 Licensed© 2001-2013 蓝光高清网 烧友之家APP |网站地图