蕨间访谈:电影版
4K HDR 
6.1
  • 年代: 2019年
  • 国家/地区: 美国
  • 类型: 喜剧 
  • 导演: Scott Aukerman
  • 音轨: DTS-HD.MA 5.1 
  • 时长: 82分钟
  • 主演:扎克·加利凡纳基斯 / 马修·麦康纳 / Rekha Shankar / Olivia Mekdara
特别声明:本站提供的所有高清电影作品均是在网上搜集,任何涉及商业盈利目的均不得使用,否则产生的一切后果将由您自己承担!本站将不对本站的任何内容负任何法律责任!该下载内容仅做宽带测试使用,请在下载后24小时内删除。请购买正版! 本站所有资源均由网上收集而来,版权归原影音公司所有,如果侵犯了你的权益,请通知我们,我们会及时删除侵权内容.

蕨间访谈:电影版/两棵树两把口 Between.Two.Ferns.The.Movie.2019.2160p.NF.WEBRip.x265.10bit.HDR.DDP5.1-TrollUHD 9.07GB

[复制链接]
蓝鸟 发表于 2020-1-8 08:51:46 | 显示全部楼层 |阅读模式 打印 上一主题 下一主题
简  介  6 \8 h7 C. Z4 a& C; G. ^& B% I
% N5 b2 S- v; k) W7 _( p5 s
  扎克·加利凡纳基斯梦想成为一名明星。威尔·法瑞尔发现了扎克的公共电视节目《蕨间访谈》,并将其上传到 Funny or Die 网站,扎克因此成为了风靡一时的笑料。如今,扎克和他的团队正踏上公路旅行,独立完成一部关于名人访谈的剧集,并以此来恢复自己的声誉。《蕨间访谈:电影版》是一部爆笑喜剧片,让观众对扎克·加利凡纳基斯多年来塑造的乖僻却讨喜的形象有了新的认识。本片由斯科特·奥克曼担任导演。
4 `1 i  \* [- _/ c) z% D
/ _) |) ^! k2 y5 t

) W% A4 A) n1 G4 X% m影片参数
+ t) q3 q+ M/ j) N, h( \
7 t7 O9 w( g; S; c3 `Video
) z- k8 A& A) P2 T1 I' KID                                       : 1
/ K8 }1 n; I+ {+ tFormat                                   : HEVC
: v' h! n% W  H, HFormat/Info                              : High Efficiency Video Coding/ l5 M$ H! C5 Z+ `8 a* l( P
Format profile                           : Main High@L4@Main
% r3 L) R8 f1 p9 h/ o! _/ M0 _6 BHDR format                               : SMPTE ST 2086, HDR10 compatible
0 `( b/ d" o5 Z6 s1 y7 QCodec ID                                 : V_MPEGH/ISO/HEVC! Y" {% Q2 q; Q
Duration                                 : 1 h 22 min
* b4 p. g& B4 T& T& v& y, X! {Bit rate                                 : 14.7 Mb/s7 J9 N( @- r& i* O2 F! Y* Q$ ~0 H
Width                                    : 3 840 pixels' j4 M% Y% h5 |3 B# L
Height                                   : 1 920 pixels& P1 ?& l3 T# J# ^$ O- n
Display aspect ratio                     : 2.000" E7 ^) W% B$ |* ^8 s' P9 e
Frame rate mode                          : Constant5 N" F' G5 d( p0 ?3 K
Frame rate                               : 24.000 FPS* _! i! q6 I: J+ b/ W) c
Color space                              : YUV
2 ~& a" B- c4 \# b; c1 \/ ?9 gChroma subsampling                       : 4:2:0
+ f0 Y& V8 K9 @( k7 d$ ~' TBit depth                                : 10 bits2 s& R4 `+ u1 k* x: g) X6 v
Bits/(Pixel*Frame)                       : 0.0839 [1 O1 D' ~/ m: [' b( i5 k' i* T
Stream size                              : 8.52 GiB (94%)
& S4 k' U) i, A- V- I- f" \Writing library                          : x265 3.2971180b100f8:[Windows][MSVC 1923][64 bit] 10bit
6 @; y4 u0 H. b! s1 NEncoding settings                        : cpuid=1111039 / frame-threads=4 / numa-pools=0,28 / wpp / no-pmode / no-pme / no-psnr / no-ssim / log-level=2 / input-csp=1 / input-res=3840x1920 / interlace=0 / total-frames=0 / level-idc=0 / high-tier=1 / uhd-bd=0 / ref=5 / no-allow-non-conformance / repeat-headers / annexb / no-aud / no-hrd / info / hash=0 / no-temporal-layers / open-gop / min-keyint=24 / keyint=250 / gop-lookahead=0 / bframes=8 / b-adapt=2 / b-pyramid / bframe-bias=0 / rc-lookahead=40 / lookahead-slices=0 / scenecut=40 / radl=0 / no-splice / no-intra-refresh / ctu=64 / min-cu-size=8 / no-rect / no-amp / max-tu-size=32 / tu-inter-depth=3 / tu-intra-depth=3 / limit-tu=0 / rdoq-level=1 / dynamic-rd=0.00 / no-ssim-rd / signhide / no-tskip / nr-intra=0 / nr-inter=0 / no-constrained-intra / strong-intra-smoothing / max-merge=5 / limit-refs=0 / no-limit-modes / me=3 / subme=4 / merange=57 / temporal-mvp / no-frame-dup / no-hme / weightp / weightb / no-analyze-src-pics / deblock=0:0 / no-sao / no-sao-non-deblock / rd=6 / selective-sao=0 / no-early-skip / rskip / no-fast-intra / no-tskip-fast / no-cu-lossless / b-intra / no-splitrd-skip / rdpenalty=0 / psy-rd=4.00 / psy-rdoq=8.00 / no-rd-refine / no-lossless / cbqpoffs=0 / crqpoffs=0 / rc=crf / crf=16.0 / qcomp=0.60 / qpstep=4 / stats-write=0 / stats-read=0 / ipratio=1.40 / pbratio=1.30 / aq-mode=2 / aq-strength=1.00 / cutree / zone-count=0 / no-strict-cbr / qg-size=32 / no-rc-grain / qpmax=69 / qpmin=0 / no-const-vbv / sar=0 / overscan=0 / videoformat=5 / range=0 / colorprim=9 / transfer=16 / colormatrix=9 / chromaloc=0 / display-window=0 / master-display=G(13250,34500)B(7500,3000)R(34000,16000)WP(15635,16450)L(10000000,1) / cll=1159,530 / min-luma=0 / max-luma=1023 / log2-max-poc-lsb=8 / vui-timing-info / vui-hrd-info / slices=1 / no-opt-qp-pps / no-opt-ref-list-length-pps / no-multi-pass-opt-rps / scenecut-bias=0.05 / no-opt-cu-delta-qp / no-aq-motion / hdr / hdr-opt / no-dhdr10-opt / no-idr-recovery-sei / analysis-reuse-level=5 / scale-factor=0 / refine-intra=0 / refine-inter=0 / refine-mv=1 / refine-ctu-distortion=0 / no-limit-sao / ctu-info=0 / no-lowpass-dct / refine-analysis-type=0 / copy-pic=1 / max-ausize-factor=1.0 / no-dynamic-refine / no-single-sei / no-hevc-aq / no-svt / no-field / qp-adaptation-range=1.00
, o3 _. A6 [! |1 X2 _0 g/ mDefault                                  : Yes' U. T3 o% k5 c/ _$ |: o
Forced                                   : No
+ p" g& J4 j4 Y+ S) kColor range                              : Limited
5 P' [0 [) B( @' U  |( g4 GColor primaries                          : BT.2020
. I' Q4 r0 E( s9 F+ @Transfer characteristics                 : PQ
' o2 S+ q1 d0 _Matrix coefficients                      : BT.2020 non-constant
" `$ q' o6 v3 q5 r, N+ fMastering display color primaries        : Display P3  }- d' Q% l% L) Q/ ^# m1 ^9 a
Mastering display luminance              : min: 0.0001 cd/m2, max: 1000 cd/m2
7 i. Y  y0 a/ J! m+ EMaximum Content Light Level              : 1159 cd/m2
+ ^+ d" Q* H. ~5 t/ a) y" Z9 LMaximum Frame-Average Light Level        : 530 cd/m2
* F3 n) z) }. Y' I, a: p% U9 F, W0 C! z* e, x5 |

/ C! d( t+ m$ U/ I  i1 NAudio! z" g& Y2 M2 }; L8 n
ID                                       : 2* J+ b) d' h4 V0 B  G% ^
Format                                   : E-AC-3  K& q: {+ V* v; x& P' S) w6 l
Format/Info                              : Enhanced AC-3; y' C; r0 z0 Z" s' T
Commercial name                          : Dolby Digital Plus4 h  J7 x( g7 f' n) y! t7 O% X8 L
Codec ID                                 : A_EAC3
- q" g, F3 r6 I# o1 h- mDuration                                 : 1 h 22 min4 j. e( ?5 C( f+ m* H$ C
Bit rate mode                            : Constant
& s9 @' c1 q6 |. E, y8 |: `! {1 oBit rate                                 : 640 kb/s" j, D& D* @. G5 {
Channel(s)                               : 6 channels
) Q; ^& J0 H8 n+ u( s- Q8 `Channel layout                           : L R C LFE Ls Rs
/ L4 w* `* q9 QSampling rate                            : 48.0 kHz
: f8 f% b; Q5 Q8 T8 lFrame rate                               : 31.250 FPS (1536 SPF), A' }( k( n6 E
Compression mode                         : Lossy
5 l2 W+ I2 S$ m* x# S. r' sStream size                              : 379 MiB (4%)+ |2 p& z3 X+ V+ \1 j2 d) w" F) q
Title                                    : English
/ X7 [7 d3 m8 J* ILanguage                                 : English
7 P0 H$ x+ X0 c  ]; m( y- |Service kind                             : Complete Main
1 g8 K/ J* c  c) xDefault                                  : Yes0 @2 B: h( H* z1 A) X) ]: v
Forced                                   : No# d9 o* ?) m& \, R! ], E  t& t& E

& A0 E! n& f. f0 Z/ E& s5 d, j  v: ^3 k" B# V1 V
9 G; ^' p0 l4 ]' v
精彩剧照2 c9 `6 L/ Y0 f; H1 |1 U

蕨间访谈:电影版/两棵树两把口 Between.Two.Ferns.The.Movie.2019.2160p.NF.WEBRip.x265.10bit.HDR.DDP5.1- ...

蕨间访谈:电影版/两棵树两把口 Between.Two.Ferns.The.Movie.2019.2160p.NF.WEBRip.x265.10bit.HDR.DDP5.1- ...

蕨间访谈:电影版/两棵树两把口 Between.Two.Ferns.The.Movie.2019.2160p.NF.WEBRip.x265.10bit.HDR.DDP5.1- ...

蕨间访谈:电影版/两棵树两把口 Between.Two.Ferns.The.Movie.2019.2160p.NF.WEBRip.x265.10bit.HDR.DDP5.1- ...

蕨间访谈:电影版/两棵树两把口 Between.Two.Ferns.The.Movie.2019.2160p.NF.WEBRip.x265.10bit.HDR.DDP5.1- ...

蕨间访谈:电影版/两棵树两把口 Between.Two.Ferns.The.Movie.2019.2160p.NF.WEBRip.x265.10bit.HDR.DDP5.1- ...
# @  f3 l/ b) t& U
0 p- O& P+ v- \5 \! X  v  P

! [" Y. H# I( ^  U1 U蓝光高清网提示您  点击下方附件名称  马上开始下载
; k" L4 p! C( N# A; m. o. y6 F, p4 y7 Y& U8 |: d

" D2 a- [" K5 }) U蕨间访谈:电影版/两棵树两把口 Between.Two.Ferns.The.Movie.2019.2160p.NF.WEBRip.x265.10bit.HDR.DDP5.1-TrollUHD 9.07GB
8 F3 V+ \5 v. \" |/ Y Between.Two.Ferns.The.Movie.2019.2160p.NF.WEBRip.x265.10bit.HDR.DDP5.1-TrollUHD.torrent 
         (45.93 KB    阅读权限: 0)
加入蓝光高清网VIP会员  无限制下载本站所有资源---点这里

资源下载、资源播放、字幕使用、无法下载等常见问题---点这里
回复

使用道具 举报

精彩评论40

lwjes 发表于 2020-1-8 09:19:14 | 显示全部楼层
好好 学习了 确实不错
回复

使用道具 举报

幽幽高手 发表于 2020-1-8 09:34:21 | 显示全部楼层
7 u/ d. s; @& H5 [9 C
楼主幸苦了
回复

使用道具 举报

DEVIL 发表于 2020-1-8 09:39:22 | 显示全部楼层
这个帖子不回对不起自己!我想我是一天也不能离开蓝光高清网了
回复

使用道具 举报

ftyy 发表于 2020-1-8 10:15:11 | 显示全部楼层
谢谢分享
回复

使用道具 举报

dingqiok 发表于 2020-1-8 10:35:35 | 显示全部楼层
终于找到了  谢谢分享
回复

使用道具 举报

akmpswv 发表于 2020-1-8 11:11:30 | 显示全部楼层
真是 收益 匪浅
回复

使用道具 举报

jaysen 发表于 2020-1-8 12:53:49 | 显示全部楼层
等好久这个资源了
回复

使用道具 举报

辛集网虫 发表于 2020-1-8 13:30:44 | 显示全部楼层
希望蓝光高清网越来越好
回复

使用道具 举报

wshh1983 发表于 2020-1-8 13:50:56 | 显示全部楼层
收藏了  谢谢
回复

使用道具 举报

您需要登录后才可以回帖 登录 | 立即注册

本版积分规则

关注0

粉丝1

帖子86440

发布主题
最新电影 论坛
本期活动
联系我们
点击这里联系客服

服务时间:
周一到周日8:00-23:30

  • 打开微信扫一扫
    关注公众号

  • 手机QQ扫一扫
    添加客服

手机版蓝光高清网 |网站地图

Powered by Discuz! X3.4 Licensed  © 2001-2013 Comsenz Inc.