蕨间访谈:电影版
4K HDR 
6.1
  • 年代: 2019年
  • 国家/地区: 美国
  • 类型: 喜剧 
  • 导演: Scott Aukerman
  • 音轨: DTS-HD.MA 5.1 
  • 时长: 82分钟
  • 主演:扎克·加利凡纳基斯 / 马修·麦康纳 / Rekha Shankar / Olivia Mekdara
特别声明:本站提供的所有高清电影作品均是在网上搜集,任何涉及商业盈利目的均不得使用,否则产生的一切后果将由您自己承担!本站将不对本站的任何内容负任何法律责任!该下载内容仅做宽带测试使用,请在下载后24小时内删除。请购买正版! 本站所有资源均由网上收集而来,版权归原影音公司所有,如果侵犯了你的权益,请通知我们,我们会及时删除侵权内容.

蕨间访谈:电影版/两棵树两把口 Between.Two.Ferns.The.Movie.2019.2160p.NF.WEBRip.x265.10bit.HDR.DDP5.1-TrollUHD 9.07GB

[复制链接]
蓝鸟VIP会员 永久VIP 发表于 2020-1-8 08:51:46 | 显示全部楼层 |阅读模式 打印 上一主题 下一主题

马上注册,轻松下载,海量资源,让你轻松玩转社区。

您需要 登录 才可以下载或查看,没有帐号?立即注册

x
简  介  
  h) Y* @2 A4 _6 H; `# P5 _0 Q& C8 s- Y
  扎克·加利凡纳基斯梦想成为一名明星。威尔·法瑞尔发现了扎克的公共电视节目《蕨间访谈》,并将其上传到 Funny or Die 网站,扎克因此成为了风靡一时的笑料。如今,扎克和他的团队正踏上公路旅行,独立完成一部关于名人访谈的剧集,并以此来恢复自己的声誉。《蕨间访谈:电影版》是一部爆笑喜剧片,让观众对扎克·加利凡纳基斯多年来塑造的乖僻却讨喜的形象有了新的认识。本片由斯科特·奥克曼担任导演。( z, J4 S" g, |1 n4 F& Q* \5 t  A
; @' _$ t7 o" x: z( d$ V: X2 ^& X

  ?1 q0 @; C! u/ h0 h# z) N  K影片参数
. T* t% i* Y% |3 w) G3 \- `# c
6 M7 E" ]: Z+ W" s) y; TVideo! P6 [- d  _$ |* q3 z
ID                                       : 1; N/ o5 r' w' U; t& J
Format                                   : HEVC% ?6 m. D2 W* Q, b
Format/Info                              : High Efficiency Video Coding4 E* P# q. s* ]
Format profile                           : Main High@L4@Main7 p7 r$ h, ^- p' g  q
HDR format                               : SMPTE ST 2086, HDR10 compatible" _) N( K; ^; ?2 S- H6 i
Codec ID                                 : V_MPEGH/ISO/HEVC
6 y+ N1 ?( f, f! e" H/ L) r1 KDuration                                 : 1 h 22 min* g( |2 [% A! A" q3 X% j' c
Bit rate                                 : 14.7 Mb/s/ y* o8 z3 F* ^/ e
Width                                    : 3 840 pixels0 A. v; W" |2 ~! P& R: j
Height                                   : 1 920 pixels) C2 o# a% E3 c7 |$ C
Display aspect ratio                     : 2.000
1 q: I7 t/ q; e1 K% s# }6 HFrame rate mode                          : Constant
, W8 X7 _7 I  f" m3 O8 {Frame rate                               : 24.000 FPS0 D! `! e) l; I" T5 M
Color space                              : YUV
" Y& X# I' z) R; `+ L% v( yChroma subsampling                       : 4:2:00 R# E; D- E7 T: _6 h) G
Bit depth                                : 10 bits
: v; n# O7 C4 {3 i1 E+ iBits/(Pixel*Frame)                       : 0.083% g' W5 y" ?; ?* d
Stream size                              : 8.52 GiB (94%)
) T1 s! _. U: P; D4 s& OWriting library                          : x265 3.2971180b100f8:[Windows][MSVC 1923][64 bit] 10bit
" n1 ]  Y; f' ~+ sEncoding settings                        : cpuid=1111039 / frame-threads=4 / numa-pools=0,28 / wpp / no-pmode / no-pme / no-psnr / no-ssim / log-level=2 / input-csp=1 / input-res=3840x1920 / interlace=0 / total-frames=0 / level-idc=0 / high-tier=1 / uhd-bd=0 / ref=5 / no-allow-non-conformance / repeat-headers / annexb / no-aud / no-hrd / info / hash=0 / no-temporal-layers / open-gop / min-keyint=24 / keyint=250 / gop-lookahead=0 / bframes=8 / b-adapt=2 / b-pyramid / bframe-bias=0 / rc-lookahead=40 / lookahead-slices=0 / scenecut=40 / radl=0 / no-splice / no-intra-refresh / ctu=64 / min-cu-size=8 / no-rect / no-amp / max-tu-size=32 / tu-inter-depth=3 / tu-intra-depth=3 / limit-tu=0 / rdoq-level=1 / dynamic-rd=0.00 / no-ssim-rd / signhide / no-tskip / nr-intra=0 / nr-inter=0 / no-constrained-intra / strong-intra-smoothing / max-merge=5 / limit-refs=0 / no-limit-modes / me=3 / subme=4 / merange=57 / temporal-mvp / no-frame-dup / no-hme / weightp / weightb / no-analyze-src-pics / deblock=0:0 / no-sao / no-sao-non-deblock / rd=6 / selective-sao=0 / no-early-skip / rskip / no-fast-intra / no-tskip-fast / no-cu-lossless / b-intra / no-splitrd-skip / rdpenalty=0 / psy-rd=4.00 / psy-rdoq=8.00 / no-rd-refine / no-lossless / cbqpoffs=0 / crqpoffs=0 / rc=crf / crf=16.0 / qcomp=0.60 / qpstep=4 / stats-write=0 / stats-read=0 / ipratio=1.40 / pbratio=1.30 / aq-mode=2 / aq-strength=1.00 / cutree / zone-count=0 / no-strict-cbr / qg-size=32 / no-rc-grain / qpmax=69 / qpmin=0 / no-const-vbv / sar=0 / overscan=0 / videoformat=5 / range=0 / colorprim=9 / transfer=16 / colormatrix=9 / chromaloc=0 / display-window=0 / master-display=G(13250,34500)B(7500,3000)R(34000,16000)WP(15635,16450)L(10000000,1) / cll=1159,530 / min-luma=0 / max-luma=1023 / log2-max-poc-lsb=8 / vui-timing-info / vui-hrd-info / slices=1 / no-opt-qp-pps / no-opt-ref-list-length-pps / no-multi-pass-opt-rps / scenecut-bias=0.05 / no-opt-cu-delta-qp / no-aq-motion / hdr / hdr-opt / no-dhdr10-opt / no-idr-recovery-sei / analysis-reuse-level=5 / scale-factor=0 / refine-intra=0 / refine-inter=0 / refine-mv=1 / refine-ctu-distortion=0 / no-limit-sao / ctu-info=0 / no-lowpass-dct / refine-analysis-type=0 / copy-pic=1 / max-ausize-factor=1.0 / no-dynamic-refine / no-single-sei / no-hevc-aq / no-svt / no-field / qp-adaptation-range=1.00
$ h6 I& q. q- M& DDefault                                  : Yes
* q* B! E' c! @4 k: T& c8 w3 TForced                                   : No% p8 l& k) M& I+ O' q
Color range                              : Limited/ Z, D) e" R3 q2 r6 _* [. I
Color primaries                          : BT.2020
2 }4 ~! I( R- T2 ^; YTransfer characteristics                 : PQ  v1 W. h6 n, O2 Q8 O: E2 n
Matrix coefficients                      : BT.2020 non-constant
) ~) k5 J9 f* ~. \- ]5 OMastering display color primaries        : Display P35 s7 B" b+ C7 ]1 B3 M. g0 n8 Q
Mastering display luminance              : min: 0.0001 cd/m2, max: 1000 cd/m2
( S3 k/ `6 Z& C( q) |" qMaximum Content Light Level              : 1159 cd/m22 U9 a- \+ m3 {; H* |- R0 F. @$ m
Maximum Frame-Average Light Level        : 530 cd/m2
+ f: o  s6 [3 ~  |: S8 c5 e  b* T
9 k4 i& ~) ~) ?( P; d0 T3 Q
2 t0 E& G# }4 @+ J4 e3 [" J
Audio
( u/ H3 o; z: Z# o. Z& NID                                       : 2# M" x& L. ?4 C6 L& J
Format                                   : E-AC-3# D5 A8 f5 [& I7 _% o
Format/Info                              : Enhanced AC-3+ f1 Y2 z) T% i" J
Commercial name                          : Dolby Digital Plus
; ^# z% Q9 d; x% _% j8 y! x" {! QCodec ID                                 : A_EAC3
2 q8 p/ C& N$ Y8 b3 C/ HDuration                                 : 1 h 22 min- S$ m5 }/ a4 e' s) a
Bit rate mode                            : Constant1 x4 ]% o: F' s
Bit rate                                 : 640 kb/s
% n" K6 P; _, E. y/ t  h9 LChannel(s)                               : 6 channels
6 C0 G! g- r3 n- kChannel layout                           : L R C LFE Ls Rs/ x. K1 V: i# Y7 ]6 G
Sampling rate                            : 48.0 kHz
. z8 S  r/ Z/ aFrame rate                               : 31.250 FPS (1536 SPF)
1 d) S- k, \8 c1 K8 }8 ECompression mode                         : Lossy
: y4 h+ n. e( m* G8 N. ^) ]Stream size                              : 379 MiB (4%)5 I. A0 g# `* l9 x1 R
Title                                    : English1 Z# y* r# L" D  d! C0 Y7 T, K
Language                                 : English2 {1 ~# z1 Y1 _1 |+ g* O7 m
Service kind                             : Complete Main
1 N4 w0 j" J+ ~0 x3 pDefault                                  : Yes; ~' v+ O/ j' G
Forced                                   : No: l1 r4 V- ?3 N9 |% f% q
1 N7 s0 P) U- e) h) |

# j# S1 N! ^: Y) U7 T0 ~  N! h0 V9 M) ~" r3 \
精彩剧照! _# \" s+ F2 A& E- _

蕨间访谈:电影版/两棵树两把口 Between.Two.Ferns.The.Movie.2019.2160p.NF.WEBRip.x265.10bit.HDR.DDP5.1- ...

蕨间访谈:电影版/两棵树两把口 Between.Two.Ferns.The.Movie.2019.2160p.NF.WEBRip.x265.10bit.HDR.DDP5.1- ...

蕨间访谈:电影版/两棵树两把口 Between.Two.Ferns.The.Movie.2019.2160p.NF.WEBRip.x265.10bit.HDR.DDP5.1- ...

蕨间访谈:电影版/两棵树两把口 Between.Two.Ferns.The.Movie.2019.2160p.NF.WEBRip.x265.10bit.HDR.DDP5.1- ...

蕨间访谈:电影版/两棵树两把口 Between.Two.Ferns.The.Movie.2019.2160p.NF.WEBRip.x265.10bit.HDR.DDP5.1- ...

蕨间访谈:电影版/两棵树两把口 Between.Two.Ferns.The.Movie.2019.2160p.NF.WEBRip.x265.10bit.HDR.DDP5.1- ...
8 s$ ^) y) B$ A# g/ f" G

" Y2 B. E" @! t# y# j2 s" p# E  A/ C+ V/ k/ K
蓝光高清网提示您  点击下方附件名称  马上开始下载
! j, L6 v, d) p: ~! U4 V; C' p2 e4 n0 @. |
; ?- c. m! ~- P5 A
蕨间访谈:电影版/两棵树两把口 Between.Two.Ferns.The.Movie.2019.2160p.NF.WEBRip.x265.10bit.HDR.DDP5.1-TrollUHD 9.07GB
6 c: e/ ^, _0 [* ]2 ` Between.Two.Ferns.The.Movie.2019.2160p.NF.WEBRip.x265.10bit.HDR.DDP5.1-TrollUHD.torrent (45.93 KB, 下载次数: 0)

加入蓝光高清网VIP会员  无限制下载本站所有资源---点此加入

资源下载、资源播放、字幕使用、无法下载等常见问题---点这里

回复

使用道具 举报

精彩评论40

lwjes 发表于 2020-1-8 09:19:14 | 显示全部楼层
好好 学习了 确实不错

加入蓝光高清网VIP会员  无限制下载本站所有资源---点此加入

资源下载、资源播放、字幕使用、无法下载等常见问题---点这里

回复

使用道具 举报

幽幽高手 发表于 2020-1-8 09:34:21 | 显示全部楼层

" |3 z& J( ]* C. H- q楼主幸苦了

加入蓝光高清网VIP会员  无限制下载本站所有资源---点此加入

资源下载、资源播放、字幕使用、无法下载等常见问题---点这里

回复

使用道具 举报

DEVIL 发表于 2020-1-8 09:39:22 | 显示全部楼层
这个帖子不回对不起自己!我想我是一天也不能离开蓝光高清网了

加入蓝光高清网VIP会员  无限制下载本站所有资源---点此加入

资源下载、资源播放、字幕使用、无法下载等常见问题---点这里

回复

使用道具 举报

ftyy 发表于 2020-1-8 10:15:11 | 显示全部楼层
谢谢分享

加入蓝光高清网VIP会员  无限制下载本站所有资源---点此加入

资源下载、资源播放、字幕使用、无法下载等常见问题---点这里

回复

使用道具 举报

dingqiok 发表于 2020-1-8 10:35:35 | 显示全部楼层
终于找到了  谢谢分享

加入蓝光高清网VIP会员  无限制下载本站所有资源---点此加入

资源下载、资源播放、字幕使用、无法下载等常见问题---点这里

回复

使用道具 举报

akmpswv 发表于 2020-1-8 11:11:30 | 显示全部楼层
真是 收益 匪浅

加入蓝光高清网VIP会员  无限制下载本站所有资源---点此加入

资源下载、资源播放、字幕使用、无法下载等常见问题---点这里

回复

使用道具 举报

jaysen 发表于 2020-1-8 12:53:49 | 显示全部楼层
等好久这个资源了

加入蓝光高清网VIP会员  无限制下载本站所有资源---点此加入

资源下载、资源播放、字幕使用、无法下载等常见问题---点这里

回复

使用道具 举报

辛集网虫 发表于 2020-1-8 13:30:44 | 显示全部楼层
希望蓝光高清网越来越好

加入蓝光高清网VIP会员  无限制下载本站所有资源---点此加入

资源下载、资源播放、字幕使用、无法下载等常见问题---点这里

回复

使用道具 举报

wshh1983 发表于 2020-1-8 13:50:56 | 显示全部楼层
收藏了  谢谢

加入蓝光高清网VIP会员  无限制下载本站所有资源---点此加入

资源下载、资源播放、字幕使用、无法下载等常见问题---点这里

回复

使用道具 举报

懒得打字嘛,点击右侧快捷回复
您需要登录后才可以回帖 登录 | 立即注册

本版积分规则

关注0

粉丝0

帖子71945

发布主题
最新电影 论坛
本期活动
联系我们
点击这里联系客服

服务时间:
周一到周日8:00-23:30

  • 打开微信扫一扫
    关注公众号

  • 手机QQ扫一扫
    添加客服

Archiver手机版蓝光高清网 ( 渝ICP备18006373号-2 )|网站地图

Powered by Discuz! X3.4  © 2001-2013 Comsenz Inc.