我为假日狂
4K HDR 
4.7
  • 年代: 2019年
  • 国家/地区: 美国
  • 类型: 喜剧 爱情 
  • 导演: 莱斯利·斯莫尔
  • 音轨: Dolby Atmos 
  • 时长: 94分钟
  • 主演:索尼夸·马丁-格林 / 罗曼尼·马尔可 / 塔玛拉·琼斯 / La La Anthony
特别声明:本站提供的所有高清电影作品均是在网上搜集,任何涉及商业盈利目的均不得使用,否则产生的一切后果将由您自己承担!本站将不对本站的任何内容负任何法律责任!该下载内容仅做宽带测试使用,请在下载后24小时内删除。请购买正版! 本站所有资源均由网上收集而来,版权归原影音公司所有,如果侵犯了你的权益,请通知我们,我们会及时删除侵权内容.

我为假日狂4k Holiday.Rush.2019.2160p.NF.WEBRip.x265.10bit.HDR.DDP5.1.Atmos-13.62GB

[复制链接]
蓝鸟VIP会员 永久VIP 发表于 2020-1-10 10:19:01 | 显示全部楼层 |阅读模式 打印 上一主题 下一主题

马上注册,轻松下载,海量资源,让你轻松玩转社区。

您需要 登录 才可以下载或查看,没有帐号?立即注册

x
分 辨 率:
4K(3840x2160)   
电影格式:
画质标准:
HDR   
音质编码:
Dolby-Atmos    Dolby Digital Plus Audio   
电影声道:
5.1声道   
电影语言:
英文原版     
资源大小:
13.62 GB

% K) Z; R+ r; n8 p
* S% T5 q( m5 P) ], h  _剧情简介
+ O. @( t' T2 r- ~. Z7 b3 m2 F+ i3 E- s( U! q
  "圣诞节虽然就要泡汤,他们仍携手同心。11 月 28 日观赏《佳节闹翻天》,Netflix 独家。) e- d* g4 t  b8 D
  罗玛尼·麦柯饰演大受欢迎的广播 DJ。他收到他四个被宠坏的孩子的圣诞礼物清单,但时机不巧,罗玛尼也偏偏刚丢了工作,于是他们只能搬到比较小的房子。也因为这样,他们终于了解物质不代表一切,虽然拥有的东西少了,收穫却可能远超过他们的想像。"
0 g/ H5 E1 b% m* W% d: [6 S$ V) e  p

8 E4 J% p7 m: Q9 O: c! B6 _* d2 H$ Y/ m9 F3 y) \. p& N9 T7 x! b
影片参数# `+ S  d4 ~# q6 K

6 p( F8 s: W6 N; v& Q! O
  • Video
  • ID : 1
  • Format : HEVC
  • Format/Info : High Efficiency Video Coding
  • Format profile : Main 10@L5.1@High
  • HDR format : SMPTE ST 2086, HDR10 compatible
  • Codec ID : V_MPEGH/ISO/HEVC
  • Duration : 1 h 34 min
  • Bit rate : 19.5 Mb/s
  • Width : 3 840 pixels
  • Height : 1 604 pixels
  • Display aspect ratio : 2.40:1
  • Frame rate mode : Constant
  • Frame rate : 24.000 FPS
  • Color space : YUV
  • Chroma subsampling : 4:2:0
  • Bit depth : 10 bits
  • Bits/(Pixel*Frame) : 0.132
  • Stream size : 12.8 GiB (94%)
  • Writing library : x265 3.2+9-971180b100f8:[Windows][MSVC 1923][64 bit] 10bit
  • Encoding settings : cpuid=1111039 / frame-threads=4 / numa-pools=0,28 / wpp / no-pmode / no-pme / no-psnr / no-ssim / log-level=2 / input-csp=1 / input-res=3840x1604 / interlace=0 / total-frames=0 / level-idc=51 / high-tier=1 / uhd-bd=0 / ref=5 / no-allow-non-conformance / repeat-headers / annexb / no-aud / no-hrd / info / hash=0 / no-temporal-layers / open-gop / min-keyint=24 / keyint=250 / gop-lookahead=0 / bframes=8 / b-adapt=2 / b-pyramid / bframe-bias=0 / rc-lookahead=40 / lookahead-slices=0 / scenecut=40 / radl=0 / no-splice / no-intra-refresh / ctu=64 / min-cu-size=8 / no-rect / no-amp / max-tu-size=32 / tu-inter-depth=3 / tu-intra-depth=3 / limit-tu=0 / rdoq-level=1 / dynamic-rd=0.00 / no-ssim-rd / signhide / no-tskip / nr-intra=0 / nr-inter=0 / no-constrained-intra / strong-intra-smoothing / max-merge=5 / limit-refs=0 / no-limit-modes / me=3 / subme=4 / merange=57 / temporal-mvp / no-frame-dup / no-hme / weightp / weightb / no-analyze-src-pics / deblock=0:0 / no-sao / no-sao-non-deblock / rd=6 / selective-sao=0 / no-early-skip / rskip / no-fast-intra / no-tskip-fast / no-cu-lossless / b-intra / no-splitrd-skip / rdpenalty=0 / psy-rd=4.00 / psy-rdoq=8.00 / no-rd-refine / no-lossless / cbqpoffs=0 / crqpoffs=0 / rc=crf / crf=15.0 / qcomp=0.60 / qpstep=4 / stats-write=0 / stats-read=0 / vbv-maxrate=160000 / vbv-bufsize=160000 / vbv-init=0.9 / crf-max=0.0 / crf-min=0.0 / ipratio=1.40 / pbratio=1.30 / aq-mode=2 / aq-strength=1.00 / cutree / zone-count=0 / no-strict-cbr / qg-size=32 / no-rc-grain / qpmax=69 / qpmin=0 / no-const-vbv / sar=0 / overscan=0 / videoformat=5 / range=0 / colorprim=9 / transfer=16 / colormatrix=9 / chromaloc=0 / display-window=0 / master-display=G(13250,34500)B(7500,3000)R(34000,16000)WP(15635,16450)L(10000000,1) / cll=1354,112 / min-luma=0 / max-luma=1023 / log2-max-poc-lsb=8 / vui-timing-info / vui-hrd-info / slices=1 / no-opt-qp-pps / no-opt-ref-list-length-pps / no-multi-pass-opt-rps / scenecut-bias=0.05 / no-opt-cu-delta-qp / no-aq-motion / hdr / hdr-opt / no-dhdr10-opt / no-idr-recovery-sei / analysis-reuse-level=5 / scale-factor=0 / refine-intra=0 / refine-inter=0 / refine-mv=1 / refine-ctu-distortion=0 / no-limit-sao / ctu-info=0 / no-lowpass-dct / refine-analysis-type=0 / copy-pic=1 / max-ausize-factor=1.0 / no-dynamic-refine / no-single-sei / no-hevc-aq / no-svt / no-field / qp-adaptation-range=1.00
  • Default : Yes
  • Forced : No
  • Color range : Limited
  • Color primaries : BT.2020
  • Transfer characteristics : PQ
  • Matrix coefficients : BT.2020 non-constant
  • Mastering display color primaries : Display P3
  • Mastering display luminance : min: 0.0001 cd/m2, max: 1000 cd/m2
  • Maximum Content Light Level : 1354 cd/m2
  • Maximum Frame-Average Light Level : 112 cd/m2
  • Audio
  • ID : 2
  • Format : E-AC-3 JOC
  • Format/Info : Enhanced AC-3 with Joint Object Coding
  • Commercial name : Dolby Digital Plus with Dolby Atmos
  • Codec ID : A_EAC3
  • Duration : 1 h 34 min
  • Bit rate mode : Constant
  • Bit rate : 768 kb/s
  • Channel(s) : 6 channels
  • Channel layout : L R C LFE Ls Rs
  • Sampling rate : 48.0 kHz
  • Frame rate : 31.250 FPS (1536 SPF)
  • Compression mode : Lossy
  • Stream size : 519 MiB (4%)
  • Language : English
  • Service kind : Complete Main
  • Default : Yes
  • Forced : No
  • Complexity index : 16
  • Number of dynamic objects : 15
  • Bed channel count : 1 channel
  • Bed channel configuration : LFE4 E+ N+ \8 `7 x7 A

5 q; f& @/ x& h4 y& i
, w( a/ p2 f2 l3 F蓝光高清网提示您  点击下方附件名即可开始下载
& ]5 }: v  P# r6 o$ w+ y  L' C
8 s6 ~- L, h: {1 o* P' C, d我为假日狂4k Holiday.Rush.2019.2160p.NF.WEBRip.x265.10bit.HDR.DDP5.1.Atmos【13.62 GB】
3 [) ]  _  m( n# H: x 我为假日狂4k Holiday.Rush.2019.2160p.NF.WEBRip.x265.10bit.HDR.DDP5.1.Atmos-Troll.torrent (68.64 KB, 下载次数: 0)

加入蓝光高清网VIP会员  无限制下载本站所有资源---点此加入

资源下载、资源播放、字幕使用、无法下载等常见问题---点这里

回复

使用道具 举报

精彩评论2

zhbpro1999 发表于 2020-1-10 10:43:05 | 显示全部楼层
下载试一试

加入蓝光高清网VIP会员  无限制下载本站所有资源---点此加入

资源下载、资源播放、字幕使用、无法下载等常见问题---点这里

回复

使用道具 举报

wangfeide4k 发表于 2020-1-11 11:26:04 | 显示全部楼层
666666666666666666666666666

加入蓝光高清网VIP会员  无限制下载本站所有资源---点此加入

资源下载、资源播放、字幕使用、无法下载等常见问题---点这里

回复

使用道具 举报

懒得打字嘛,点击右侧快捷回复
您需要登录后才可以回帖 登录 | 立即注册

本版积分规则

关注0

粉丝0

帖子72186

发布主题
最新电影 论坛
本期活动
联系我们
点击这里联系客服

服务时间:
周一到周日8:00-23:30

  • 打开微信扫一扫
    关注公众号

  • 手机QQ扫一扫
    添加客服

Archiver手机版蓝光高清网 ( 渝ICP备18006373号-2 )|网站地图

Powered by Discuz! X3.4  © 2001-2013 Comsenz Inc.