黑神锅传奇
4K HDR 
6.4
  • 年代: 更早
  • 国家/地区: 美国
  • 类型: 动画 奇幻 冒险 家庭 
  • 导演: 泰德·伯曼 / Richard Rich
  • 音轨: DTS-HD.MA 5.1 
  • 时长: 80分钟
  • 主演:Grant Bardsley / Susan Sheridan / 弗雷迪·琼斯 / 奈杰尔·霍桑
特别声明:本站提供的所有高清电影作品均是在网上搜集,任何涉及商业盈利目的均不得使用,否则产生的一切后果将由您自己承担!本站将不对本站的任何内容负任何法律责任!该下载内容仅做宽带测试使用,请在下载后24小时内删除。请购买正版! 本站所有资源均由网上收集而来,版权归原影音公司所有,如果侵犯了你的权益,请通知我们,我们会及时删除侵权内容.

黑神锅传奇4k The.Black.Cauldron.1985.2160p.DSNP.WEBRip.x265.10bit.HDR.DDP5.1-10.85

[复制链接]
蓝鸟 发表于 2020-1-10 10:23:08 | 显示全部楼层 |阅读模式 打印 上一主题 下一主题
本帖最后由 蓝鸟 于 2020-2-13 10:29 编辑 7 L, c6 ?, ^% l$ a! x  }
' |  w& J. C$ g+ `
分 辨 率:
4K(3840x2160)   
电影格式:
MKV|REMUX   
画质标准:
HDR   
音质编码:
Dolby Digital Plus Audio   
电影声道:
5.1声道   
电影语言:
英文原版     
资源大小:
10.85 GB
* @& i! C7 v! R  E+ B( [5 F
简       介
& ^; A# ^0 I- C* y& R
$ z  }, _% l+ C  v3 Y- t  《黑神锅传奇》The Black Cauldron (Disney Gold Classic Collection) (1985)是迪斯尼经典动画里最另类的一部作品。剧情叙述一位名叫塔兰(Taran)的少年,为了维护家乡和平,而与魔王The Horned King对抗,阻止其利用黑神锅的魔力危害世人。本片也是迪士尼动画第一次利用计算机来辅助拍摄,不过只有短短几个画面而已。/ ?' O2 ~4 n7 w6 L0 t& m) {0 a
  本片在某些地区上映时采用另一片名“Taran and the Magic Cauldron”,而且片中有一些迪士尼动画里少见的血腥画面,与以往迪士尼动画风格似乎有些不同,因此本片被定位为只针对青少年观众,迥异于其他适合阖家观赏的迪士尼电影。本片也是迪士尼动画第一次藉由电脑来辅助拍摄,不过只有短短几个画面而已,到了隔年的《妙妙探》,迪士尼才第一次用电脑制作出一个独立的场景。本片是迪士尼经典动画里最另类的一部作品,因为走的不是传统家庭路线,故迪士尼对本片是否要推出录影带一直心存观望,况且还有一些版权等的争议…不过经过内部几番沟通后,本片终于在1997年底首度在英国发行录影带,但是心细的影迷立刻发现有几幕被删掉了!为此还向迪士尼提出抗议…至于美国则在1998年首度发行录影带,发行的则是当初完整的版本。5 [/ ]6 x, ]) L: Q
+ A  ^3 `. }4 L. U; r$ k0 H/ C9 L. G

3 q9 p0 h' n! A, r影片参数

" m6 y: d! {( T( E% p( y% y
9 K* g$ b' F$ e. i$ k# n" H# u' A5 j/ x) |2 R' l" z
Video- T6 V1 Y# w' u% j
ID : 1
2 ]7 I% \2 t) Y8 t/ kFormat : HEVC" ^% \$ X) F2 C7 b4 j
Format/Info : High Efficiency Video Coding
/ {; f) V5 t# vFormat profile : Main 10@L5.1@High6 B6 m$ y3 i2 G1 t4 k
Codec ID : V_MPEGH/ISO/HEVC
* @! R/ Z; l9 u3 |7 W1 \Duration : 1 h 20 min" B  ?: d; z/ @( D% _. v! h; k" N; F0 z% k
Bit rate : 18.4 Mb/s
) G2 P! [5 B# f6 J$ zWidth : 3 840 pixels+ N& p1 ~9 d$ b* m
Height : 1 634 pixels# ^- z8 V/ D) H/ E6 k
Display aspect ratio : 2.35:1
  Q+ ^5 D  G- d2 c- e4 UFrame rate mode : Constant, o1 N. K" F; a3 ~7 L9 s8 n
Frame rate : 23.976 (24000/1001) FPS
: H7 l% a- Q) k! h. t4 kColor space : YUV) U7 d4 Y: r/ l% R& X
Chroma subsampling : 4:2:04 F1 h( v6 W2 v
Bit depth : 10 bits, G8 D/ f7 w# `/ H! Q
Bits/(Pixel*Frame) : 0.122
8 _! x2 [4 ]# g3 uStream size : 10.3 GiB (95%)$ Y! o3 M$ f) ^- [6 J5 ]& u3 i
Writing library : x265 3.2+23-52135ffd9bcd:[Windows][MSVC 1924][64 bit] 10bit7 Q6 o2 O# J3 k. l* \! ~
Encoding settings : cpuid=1111039 / frame-threads=4 / numa-pools=0,28 / wpp / no-pmode / no-pme / no-psnr / no-ssim / log-level=2 / input-csp=1 / input-res=3840x1634 / interlace=0 / total-frames=0 / level-idc=51 / high-tier=1 / uhd-bd=0 / ref=5 / no-allow-non-conformance / repeat-headers / annexb / no-aud / no-hrd / info / hash=0 / no-temporal-layers / open-gop / min-keyint=23 / keyint=250 / gop-lookahead=0 / bframes=8 / b-adapt=2 / b-pyramid / bframe-bias=0 / rc-lookahead=40 / lookahead-slices=0 / scenecut=40 / hist-scenecut=0 / radl=0 / no-splice / no-intra-refresh / ctu=64 / min-cu-size=8 / no-rect / no-amp / max-tu-size=32 / tu-inter-depth=3 / tu-intra-depth=3 / limit-tu=0 / rdoq-level=1 / dynamic-rd=0.00 / no-ssim-rd / signhide / no-tskip / nr-intra=0 / nr-inter=0 / no-constrained-intra / strong-intra-smoothing / max-merge=5 / limit-refs=0 / no-limit-modes / me=3 / subme=4 / merange=57 / temporal-mvp / no-frame-dup / no-hme / weightp / weightb / no-analyze-src-pics / deblock=0:0 / no-sao / no-sao-non-deblock / rd=6 / selective-sao=0 / no-early-skip / rskip / no-fast-intra / no-tskip-fast / no-cu-lossless / b-intra / no-splitrd-skip / rdpenalty=0 / psy-rd=4.00 / psy-rdoq=8.00 / no-rd-refine / no-lossless / cbqpoffs=0 / crqpoffs=0 / rc=crf / crf=17.0 / qcomp=0.60 / qpstep=4 / stats-write=0 / stats-read=0 / vbv-maxrate=160000 / vbv-bufsize=160000 / vbv-init=0.9 / crf-max=0.0 / crf-min=0.0 / ipratio=1.40 / pbratio=1.30 / aq-mode=2 / aq-strength=1.00 / cutree / zone-count=0 / no-strict-cbr / qg-size=32 / no-rc-grain / qpmax=69 / qpmin=0 / no-const-vbv / sar=0 / overscan=0 / videoformat=5 / range=0 / colorprim=9 / transfer=16 / colormatrix=9 / chromaloc=0 / display-window=0 / cll=0,0 / min-luma=0 / max-luma=1023 / log2-max-poc-lsb=8 / vui-timing-info / vui-hrd-info / slices=1 / no-opt-qp-pps / no-opt-ref-list-length-pps / no-multi-pass-opt-rps / scenecut-bias=0.05 / hist-threshold=0.01 / no-opt-cu-delta-qp / no-aq-motion / hdr / hdr-opt / no-dhdr10-opt / no-idr-recovery-sei / analysis-reuse-level=5 / scale-factor=0 / refine-intra=0 / refine-inter=0 / refine-mv=1 / refine-ctu-distortion=0 / no-limit-sao / ctu-info=0 / no-lowpass-dct / refine-analysis-type=0 / copy-pic=1 / max-ausize-factor=1.0 / no-dynamic-refine / no-single-sei / no-hevc-aq / no-svt / no-field / qp-adaptation-range=1.00 / no-scenecut-aware-qp
1 ~; |1 F/ \# e  ]0 E$ w4 T5 C7 l$ IDefault : Yes) k4 r+ p( b, N; J4 L
Forced : No( r" b. ?6 b- L+ `( G$ U: d2 p
Color range : Limited- M  W$ `1 J/ p( q, q3 }' o( _
Color primaries : BT.2020
/ I/ ~7 @3 O; NTransfer characteristics : PQ! a6 c' K# ?& `* K6 y. }
Matrix coefficients : BT.2020 non-constant
4 V2 e( o# H! ?8 x; i/ KAudio
/ O  r" L' ^, _/ w5 oID : 2
( H7 \9 c& g8 `+ J# ?Format : E-AC-38 @1 p8 i+ i: y: t
Format/Info : Enhanced AC-3
7 ^) X% v5 B0 v' O: o$ |- WCommercial name : Dolby Digital Plus
$ i" n& B7 f& h+ O" H( sCodec ID : A_EAC3
1 R# ?( L1 l) {( EDuration : 1 h 20 min; [4 H' @3 a* ?, k
Bit rate mode : Constant
+ c2 n: |( K' nBit rate : 640 kb/s; B# l; I& Z1 e: a; w/ {
Channel(s) : 6 channels6 U6 X; N. E, p- b4 a
Channel layout : L R C LFE Ls Rs- J) o; \  ^6 V  I+ C! \
Sampling rate : 48.0 kHz6 ~' g* ]9 ]& U8 ~4 D. i' T2 J
Frame rate : 31.250 FPS (1536 SPF)
+ z+ H( ]  U: J  {Compression mode : Lossy  |1 ^% j3 p, i: O
Stream size : 367 MiB (3%)2 t9 s# i* g* |1 c# L1 G% U
Language : English
8 C8 q2 w- E% J7 J) ?2 aService kind : Complete Main/ \. C2 y$ }" l0 u! _( N" S; f9 t7 A
Default : Yes
4 w& I! R- o( W: W1 b- }Forced : No
; z2 g  ~3 O9 _
- `0 P! c: R6 q( k% r
# n3 W0 U$ e8 y+ K/ l蓝光高清网提示您  点击下方附件名即可开始下载) H" N+ h. a9 h- o7 D$ [
: V/ R6 ]. u1 g3 \* l: d4 K
黑神锅传4k The.Black.Cauldron.1985.2160p.DSNP.WEBRip.x265.10bit.HDR.DDP5.1【10.85 GB】
6 d) N0 }3 j( p+ B2 |9 D 黑神锅传4k The.Black.Cauldron.1985.2160p.DSNP.WEBRip.x265.10bit.HDR.DDP5.1-Troll.torrent 
         (54.83 KB    阅读权限: 0)
加入蓝光高清网VIP会员  无限制下载本站所有资源---点这里

资源下载、资源播放、字幕使用、无法下载等常见问题---点这里
回复

使用道具 举报

精彩评论6

wangfeide4k 发表于 2020-1-10 12:24:54 | 显示全部楼层
11111111111111111111
回复

使用道具 举报

幽幽高手 发表于 2020-1-11 09:29:25 | 显示全部楼层

" ?, V* \& U3 `8 J好网站 希望越来越好
回复

使用道具 举报

wangfeide4k 发表于 2020-1-11 11:25:47 | 显示全部楼层
11111111111111111111111111
回复

使用道具 举报

as2002 发表于 2020-1-12 18:35:33 | 显示全部楼层

: d; I9 P5 V8 H+ p蓝光高清网是个好地方
回复

使用道具 举报

wangfeide4k 发表于 2020-1-23 22:10:54 | 显示全部楼层
111111111111111111111
回复

使用道具 举报

笑傲江湖 发表于 2020-2-18 08:48:01 | 显示全部楼层
很好的网站,希望越办越好!
回复

使用道具 举报

您需要登录后才可以回帖 登录 | 立即注册

本版积分规则

关注0

粉丝1

帖子86513

发布主题
最新电影 论坛
本期活动
联系我们
点击这里联系客服

服务时间:
周一到周日8:00-23:30

  • 打开微信扫一扫
    关注公众号

  • 手机QQ扫一扫
    添加客服

手机版蓝光高清网 |网站地图

Powered by Discuz! X3.4 Licensed  © 2001-2013 Comsenz Inc.