黑神锅传奇
4K HDR 
6.4
  • 年代: 更早
  • 国家/地区: 美国
  • 类型: 动画 奇幻 冒险 家庭 
  • 导演: 泰德·伯曼 / Richard Rich
  • 音轨: DTS-HD.MA 5.1 
  • 时长: 80分钟
  • 主演:Grant Bardsley / Susan Sheridan / 弗雷迪·琼斯 / 奈杰尔·霍桑
特别声明:本站提供的所有高清电影作品均是在网上搜集,任何涉及商业盈利目的均不得使用,否则产生的一切后果将由您自己承担!本站将不对本站的任何内容负任何法律责任!该下载内容仅做宽带测试使用,请在下载后24小时内删除。请购买正版! 本站所有资源均由网上收集而来,版权归原影音公司所有,如果侵犯了你的权益,请通知我们,我们会及时删除侵权内容.

黑神锅传奇4k The.Black.Cauldron.1985.2160p.DSNP.WEBRip.x265.10bit.HDR.DDP5.1-10.85

[复制链接]
蓝鸟VIP会员 永久VIP 发表于 2020-1-10 10:23:08 | 显示全部楼层 |阅读模式 打印 上一主题 下一主题

马上注册,轻松下载,海量资源,让你轻松玩转社区。

您需要 登录 才可以下载或查看,没有帐号?立即注册

x
本帖最后由 蓝鸟 于 2020-1-10 10:24 编辑
) M" S. M  U$ z& }
3 i) |7 T9 M, N6 @- S2 n+ f+ t4 X% K) Z7 ^0 |
分 辨 率:
4K(3840x2160)   
电影格式:
MKV|REMUX   
画质标准:
HDR   
音质编码:
Dolby Digital Plus Audio   
电影声道:
5.1声道   
电影语言:
英文原版     
资源大小:
10.85 GB

$ q# O: z8 K$ v* J' b8 G  }/ `2 R* f# \+ P; F3 J( W9 s2 a
# V! l% ?! l1 b9 ]$ x
精彩剧照5 ~2 |  S' n# S% M! a* m

! a: Z  `4 B+ a8 L  《黑神锅传奇》The Black Cauldron (Disney Gold Classic Collection) (1985)是迪斯尼经典动画里最另类的一部作品。剧情叙述一位名叫塔兰(Taran)的少年,为了维护家乡和平,而与魔王The Horned King对抗,阻止其利用黑神锅的魔力危害世人。本片也是迪士尼动画第一次利用计算机来辅助拍摄,不过只有短短几个画面而已。% M  m) I  l+ o/ ]6 l, Z7 Y
  本片在某些地区上映时采用另一片名“Taran and the Magic Cauldron”,而且片中有一些迪士尼动画里少见的血腥画面,与以往迪士尼动画风格似乎有些不同,因此本片被定位为只针对青少年观众,迥异于其他适合阖家观赏的迪士尼电影。本片也是迪士尼动画第一次藉由电脑来辅助拍摄,不过只有短短几个画面而已,到了隔年的《妙妙探》,迪士尼才第一次用电脑制作出一个独立的场景。本片是迪士尼经典动画里最另类的一部作品,因为走的不是传统家庭路线,故迪士尼对本片是否要推出录影带一直心存观望,况且还有一些版权等的争议…不过经过内部几番沟通后,本片终于在1997年底首度在英国发行录影带,但是心细的影迷立刻发现有几幕被删掉了!为此还向迪士尼提出抗议…至于美国则在1998年首度发行录影带,发行的则是当初完整的版本。+ m; S. J: e0 U3 w+ u

. `3 `% b+ v" z" [7 A% }! d
/ i  G# }+ K" A: I
影片参数
+ X7 @% n5 y3 I; v8 Y: g
. g, i* q, i8 {4 p) Z: P
  • Video
  • ID : 1
  • Format : HEVC
  • Format/Info : High Efficiency Video Coding
  • Format profile : Main 10@L5.1@High
  • Codec ID : V_MPEGH/ISO/HEVC
  • Duration : 1 h 20 min
  • Bit rate : 18.4 Mb/s
  • Width : 3 840 pixels
  • Height : 1 634 pixels
  • Display aspect ratio : 2.35:1
  • Frame rate mode : Constant
  • Frame rate : 23.976 (24000/1001) FPS
  • Color space : YUV
  • Chroma subsampling : 4:2:0
  • Bit depth : 10 bits
  • Bits/(Pixel*Frame) : 0.122
  • Stream size : 10.3 GiB (95%)
  • Writing library : x265 3.2+23-52135ffd9bcd:[Windows][MSVC 1924][64 bit] 10bit
  • Encoding settings : cpuid=1111039 / frame-threads=4 / numa-pools=0,28 / wpp / no-pmode / no-pme / no-psnr / no-ssim / log-level=2 / input-csp=1 / input-res=3840x1634 / interlace=0 / total-frames=0 / level-idc=51 / high-tier=1 / uhd-bd=0 / ref=5 / no-allow-non-conformance / repeat-headers / annexb / no-aud / no-hrd / info / hash=0 / no-temporal-layers / open-gop / min-keyint=23 / keyint=250 / gop-lookahead=0 / bframes=8 / b-adapt=2 / b-pyramid / bframe-bias=0 / rc-lookahead=40 / lookahead-slices=0 / scenecut=40 / hist-scenecut=0 / radl=0 / no-splice / no-intra-refresh / ctu=64 / min-cu-size=8 / no-rect / no-amp / max-tu-size=32 / tu-inter-depth=3 / tu-intra-depth=3 / limit-tu=0 / rdoq-level=1 / dynamic-rd=0.00 / no-ssim-rd / signhide / no-tskip / nr-intra=0 / nr-inter=0 / no-constrained-intra / strong-intra-smoothing / max-merge=5 / limit-refs=0 / no-limit-modes / me=3 / subme=4 / merange=57 / temporal-mvp / no-frame-dup / no-hme / weightp / weightb / no-analyze-src-pics / deblock=0:0 / no-sao / no-sao-non-deblock / rd=6 / selective-sao=0 / no-early-skip / rskip / no-fast-intra / no-tskip-fast / no-cu-lossless / b-intra / no-splitrd-skip / rdpenalty=0 / psy-rd=4.00 / psy-rdoq=8.00 / no-rd-refine / no-lossless / cbqpoffs=0 / crqpoffs=0 / rc=crf / crf=17.0 / qcomp=0.60 / qpstep=4 / stats-write=0 / stats-read=0 / vbv-maxrate=160000 / vbv-bufsize=160000 / vbv-init=0.9 / crf-max=0.0 / crf-min=0.0 / ipratio=1.40 / pbratio=1.30 / aq-mode=2 / aq-strength=1.00 / cutree / zone-count=0 / no-strict-cbr / qg-size=32 / no-rc-grain / qpmax=69 / qpmin=0 / no-const-vbv / sar=0 / overscan=0 / videoformat=5 / range=0 / colorprim=9 / transfer=16 / colormatrix=9 / chromaloc=0 / display-window=0 / cll=0,0 / min-luma=0 / max-luma=1023 / log2-max-poc-lsb=8 / vui-timing-info / vui-hrd-info / slices=1 / no-opt-qp-pps / no-opt-ref-list-length-pps / no-multi-pass-opt-rps / scenecut-bias=0.05 / hist-threshold=0.01 / no-opt-cu-delta-qp / no-aq-motion / hdr / hdr-opt / no-dhdr10-opt / no-idr-recovery-sei / analysis-reuse-level=5 / scale-factor=0 / refine-intra=0 / refine-inter=0 / refine-mv=1 / refine-ctu-distortion=0 / no-limit-sao / ctu-info=0 / no-lowpass-dct / refine-analysis-type=0 / copy-pic=1 / max-ausize-factor=1.0 / no-dynamic-refine / no-single-sei / no-hevc-aq / no-svt / no-field / qp-adaptation-range=1.00 / no-scenecut-aware-qp
  • Default : Yes
  • Forced : No
  • Color range : Limited
  • Color primaries : BT.2020
  • Transfer characteristics : PQ
  • Matrix coefficients : BT.2020 non-constant
  • Audio
  • ID : 2
  • Format : E-AC-3
  • Format/Info : Enhanced AC-3
  • Commercial name : Dolby Digital Plus
  • Codec ID : A_EAC3
  • Duration : 1 h 20 min
  • Bit rate mode : Constant
  • Bit rate : 640 kb/s
  • Channel(s) : 6 channels
  • Channel layout : L R C LFE Ls Rs
  • Sampling rate : 48.0 kHz
  • Frame rate : 31.250 FPS (1536 SPF)
  • Compression mode : Lossy
  • Stream size : 367 MiB (3%)
  • Language : English
  • Service kind : Complete Main
  • Default : Yes
  • Forced : No3 E! F7 u* ~+ X

: }; X5 g# E0 ]  ~, x* d
: R) Q1 {: n* [9 `, E) e
7 [+ r0 C/ k& p  t0 u# P$ S
9 Z! _+ ^7 s9 e
% ?$ s$ j+ z' e
蓝光高清网提示您  点击下方附件名即可开始下载# i+ F8 y& t4 y! w

! T; y: P& O' X$ w黑神锅传4k The.Black.Cauldron.1985.2160p.DSNP.WEBRip.x265.10bit.HDR.DDP5.1【10.85 GB】! O) K/ ]1 @& b! N$ x
黑神锅传4k The.Black.Cauldron.1985.2160p.DSNP.WEBRip.x265.10bit.HDR.DDP5.1-Troll.torrent (54.83 KB, 下载次数: 0)

加入蓝光高清网VIP会员  无限制下载本站所有资源---点此加入

资源下载、资源播放、字幕使用、无法下载等常见问题---点这里

回复

使用道具 举报

精彩评论5

wangfeide4k 发表于 2020-1-10 12:24:54 | 显示全部楼层
11111111111111111111

加入蓝光高清网VIP会员  无限制下载本站所有资源---点此加入

资源下载、资源播放、字幕使用、无法下载等常见问题---点这里

回复

使用道具 举报

幽幽高手 发表于 2020-1-11 09:29:25 | 显示全部楼层
2 s  x( s" U- ~+ j: M
好网站 希望越来越好

加入蓝光高清网VIP会员  无限制下载本站所有资源---点此加入

资源下载、资源播放、字幕使用、无法下载等常见问题---点这里

回复

使用道具 举报

wangfeide4k 发表于 2020-1-11 11:25:47 | 显示全部楼层
11111111111111111111111111

加入蓝光高清网VIP会员  无限制下载本站所有资源---点此加入

资源下载、资源播放、字幕使用、无法下载等常见问题---点这里

回复

使用道具 举报

as2002 发表于 2020-1-12 18:35:33 | 显示全部楼层

2 a6 y0 M/ c5 G; f/ ]. u0 i* {蓝光高清网是个好地方

加入蓝光高清网VIP会员  无限制下载本站所有资源---点此加入

资源下载、资源播放、字幕使用、无法下载等常见问题---点这里

回复

使用道具 举报

wangfeide4k 发表于 4 天前 | 显示全部楼层
111111111111111111111

加入蓝光高清网VIP会员  无限制下载本站所有资源---点此加入

资源下载、资源播放、字幕使用、无法下载等常见问题---点这里

回复

使用道具 举报

懒得打字嘛,点击右侧快捷回复
您需要登录后才可以回帖 登录 | 立即注册

本版积分规则

关注0

粉丝0

帖子71945

发布主题
最新电影 论坛
本期活动
联系我们
点击这里联系客服

服务时间:
周一到周日8:00-23:30

  • 打开微信扫一扫
    关注公众号

  • 手机QQ扫一扫
    添加客服

Archiver手机版蓝光高清网 ( 渝ICP备18006373号-2 )|网站地图

Powered by Discuz! X3.4  © 2001-2013 Comsenz Inc.