成为邦德
4K 
8.0
  • 年代: 2017年
  • 国家/地区: 美国
  • 类型: 记录 
  • 导演: Josh Greenbaum
  • 音轨:  
  • 时长: 92分钟
  • 主演:乔治·拉扎贝 George Lazenby / 约什·劳森 Josh Lawson
特别声明:本站提供的所有高清电影作品均是在网上搜集,任何涉及商业盈利目的均不得使用,否则产生的一切后果将由您自己承担!本站将不对本站的任何内容负任何法律责任!该下载内容仅做宽带测试使用,请在下载后24小时内删除。请购买正版! 本站所有资源均由网上收集而来,版权归原影音公司所有,如果侵犯了你的权益,请通知我们,我们会及时删除侵权内容.

成为邦德/成为詹姆斯·邦德 Becoming.Bond.2017.2160p.HULU.WEBRip.x265.10bit.SDR.DDP5.1-AJP69 10.22GB

[复制链接]
蓝鸟 发表于 2020-1-11 22:01:19 | 显示全部楼层 |阅读模式 打印 上一主题 下一主题
简  介  4 q* ?. w% h8 `3 Y9 K

. H( ^, E+ x4 X: E, m/ t* B/ ^2 E  The stranger-than-fiction true story of George Lazenby, a poor Australian car mechanic who, through an unbelievable set of circumstances, landed the role of James Bond in On Her Majesty's Secret Service (1969), despite having never acted a day in his life. Then after being offered the next seven Bond films and a $1 million signing bonus, he turned it all down...
4 Y% f6 O* D! n

$ l# W' C! _" |' E2 U  t: \
: O$ {( }0 k! s/ i2 a' Q

1 U' o$ Q% a, _4 f2 {' K影片参数4 f$ Z+ o2 z0 E" `
/ i) U* \. ]/ p9 F% G
  • Video
  • ID                                       : 1
  • Format                                   : HEVC
  • Format/Info                              : High Efficiency Video Coding
  • Format profile                           : Main High@L4@Main
  • Codec ID                                 : V_MPEGH/ISO/HEVC
  • Duration                                 : 1 h 35 min
  • Bit rate                                 : 15.1 Mb/s
  • Width                                    : 3 840 pixels
  • Height                                   : 2 160 pixels
  • Display aspect ratio                     : 16:9
  • Frame rate mode                          : Constant
  • Frame rate                               : 23.976 (24000/1001) FPS
  • Color space                              : YUV
  • Chroma subsampling                       : 4:2:0
  • Bit depth                                : 10 bits
  • Bits/(Pixel*Frame)                       : 0.076
  • Stream size                              : 10.0 GiB (98%)
  • Default                                  : Yes
  • Forced                                   : No
  • Audio
  • ID                                       : 2
  • Format                                   : E-AC-3
  • Format/Info                              : Enhanced AC-3
  • Commercial name                          : Dolby Digital Plus
  • Codec ID                                 : A_EAC3
  • Duration                                 : 1 h 35 min
  • Bit rate mode                            : Constant
  • Bit rate                                 : 256 kb/s
  • Channel(s)                               : 6 channels
  • Channel layout                           : L R C LFE Ls Rs
  • Sampling rate                            : 48.0 kHz
  • Frame rate                               : 31.250 FPS (1536 SPF)
  • Compression mode                         : Lossy
  • Stream size                              : 174 MiB (2%)
  • Language                                 : English
  • Service kind                             : Complete Main
  • Default                                  : Yes
  • Forced                                   : No
  • Text #1
  • ID                                       : 3
  • Format                                   : UTF-8
  • Codec ID                                 : S_TEXT/UTF8
  • Codec ID/Info                            : UTF-8 Plain Text
  • Duration                                 : 1 h 35 min
  • Bit rate                                 : 91 b/s
  • Count of elements                        : 2388
  • Stream size                              : 63.9 KiB (0%)
  • Language                                 : English
  • Default                                  : No
  • Forced                                   : No
  • Text #2
  • ID                                       : 4
  • Format                                   : UTF-8
  • Codec ID                                 : S_TEXT/UTF8
  • Codec ID/Info                            : UTF-8 Plain Text
  • Duration                                 : 1 h 31 min
  • Bit rate                                 : 92 b/s
  • Count of elements                        : 2328
  • Stream size                              : 62.3 KiB (0%)
  • Language                                 : Spanish
  • Default                                  : No
  • Forced                                   : No
    % K, i* e) z/ O$ d- d% s7 @

9 t( v4 N6 r' J( J, r1 E& e& ~  U) o5 l, t. [0 T) j$ ?
5 ?6 a$ W8 q0 x6 z2 ?

; }" I- s1 ^: ?$ S6 G! G: _  j7 j  v) V- f- E' l! `: _& \

5 m5 k3 s) w0 f精彩剧照9 S$ b" V$ x& h& Z: T

, Q, k$ `" m. o3 C; c+ i% v 成为邦德/成为詹姆斯·邦德 Becoming.Bond.2017.2160p.HULU.WEBRip.x265.10bit.SDR.DDP5.1-AJP69 10.22GB-1.png 成为邦德/成为詹姆斯·邦德 Becoming.Bond.2017.2160p.HULU.WEBRip.x265.10bit.SDR.DDP5.1-AJP69 10.22GB-2.png 成为邦德/成为詹姆斯·邦德 Becoming.Bond.2017.2160p.HULU.WEBRip.x265.10bit.SDR.DDP5.1-AJP69 10.22GB-3.png * W6 `2 X) P! @# X) J/ E4 q1 o

( R5 f1 Z3 w5 l, n  G
/ B, e8 }4 h" H" `' ~; _
3 y% |4 e9 b5 I) x5 k

8 ~& w2 E6 m* p4 [: `
- W2 N* D8 w8 m( T
蓝光高清网提示您  点击下方附件名称  马上开始下载  \/ s+ I( u0 O# K

- q. b* C+ b* R
) S& w3 V" \( C) r
成为邦德/成为詹姆斯·邦德 Becoming.Bond.2017.2160p.HULU.WEBRip.x265.10bit.SDR.DDP5.1-AJP69 10.22GB
' G& c: X/ S' V5 ?1 ^$ r3 ^1 t Becoming.Bond.2017.2160p.HULU.WEBRip.x265.10bit.SDR.DDP5.1-AJP69.torrent 
         (51.65 KB    阅读权限: 20)
加入蓝光高清网VIP会员  无限制下载本站所有资源---点这里

资源下载、资源播放、字幕使用、无法下载等常见问题---点这里
回复

使用道具 举报

精彩评论3

幽幽高手 发表于 2020-1-14 09:00:30 | 显示全部楼层
# M# G4 S& i* N- I5 z& N
收藏了  谢谢
回复

使用道具 举报

liq 发表于 2020-1-19 22:43:56 | 显示全部楼层
楼主发贴辛苦了,谢谢楼主分享!
回复

使用道具 举报

kanlyter 发表于 2020-1-25 22:31:30 | 显示全部楼层

- `! Y* S* y: e6 h# f/ x7 S( q好网站 希望越来越好
回复

使用道具 举报

您需要登录后才可以回帖 登录 | 立即注册

本版积分规则

关注0

粉丝1

帖子86513

发布主题
最新电影 论坛
本期活动
联系我们
点击这里联系客服

服务时间:
周一到周日8:00-23:30

  • 打开微信扫一扫
    关注公众号

  • 手机QQ扫一扫
    添加客服

手机版蓝光高清网 |网站地图

Powered by Discuz! X3.4 Licensed  © 2001-2013 Comsenz Inc.