[惊悚片] 枪长莫及 Beyond.the.Reach.2014.1080p.BluRay.REMUX.AVC.DTS-HD.MA.5.1-RARBG 14.48GB

[复制链接]
蓝鸟 发表于 2019-8-18 18:34:52 | 显示全部楼层 |阅读模式 打印 上一主题 下一主题
枪长莫及 Beyond.the.Reach.2014.1080p.BluRay.REMUX.AVC.DTS-HD.MA.5.1-RARBG 14.48GB-1.jpg
◎译  名 爱在初春惊变时/该女子奇怪的身体
◎片  名 Spring
◎年  代 2014
◎国  家 美国
◎类  别 爱情/科幻/恐怖
◎语  言 英语
◎上映日期 2015-03-20(美国)/2014-09-05(多伦多电影节)
◎IMDb评分  6.7/10 from 3,473 users
◎IMDb链接  http://www.imdb.com/title/tt3395184/
◎豆瓣评分 6.8/10 from 487 users
◎豆瓣链接 http://movie.douban.com/subject/25941964/
◎片  长 105分钟
◎导  演 贾斯汀·本森 Justin Benson / 艾伦·穆尔黑德 Aaron Moorhead
◎主  演 卢·泰勒·普奇 Lou Taylor Pucci
      Nadia Hilker
      Francesco Carnelutti
      尼克·耐文 Nick Nevern
◎简  介
  在意大利的小镇里,一个与众不同的爱情正在萌芽。
一切那么美丽却残酷,但也正是因为这个独一无二的爱情,让春天来得更灿烂。
Before Sunrise gets a supernatural twist in this tale of an American backpacker in Italy who falls in love with a beautiful young woman harbouring a dark, primordial secret.
获奖记录
    2014年奥斯汀奇幻电影节  最佳男演员  卢·泰勒·普奇
    2015年棕榈泉国际电影节  Directors to Watch
Video
ID                                       : 1
Format                                   : AVC
Format/Info                              : Advanced Video Codec
Format profile                           : High@L4.1
Format settings, CABAC                   : Yes
Format settings, ReFrames                : 4 frames
Codec ID                                 : V_MPEG4/ISO/AVC
Duration                                 : 1h 31mn
Bit rate mode                            : Variable
Maximum bit rate                         : 35.0 Mbps
Width                                    : 1 920 pixels
Height                                   : 1 080 pixels
Display aspect ratio                     : 16:9
Frame rate mode                          : Constant
Frame rate                               : 23.976 fps
Color space                              : YUV
Chroma subsampling                       : 4:2:0
Bit depth                                : 8 bits
Scan type                                : Progressive
Title                                    : Beyond.the.Reach.2014.1080p.BluRay.REMUX.AVC.DTS-HD.MA.5.1-RARBG
Language                                 : English
Default                                  : No
Forced                                   : No
Audio #1
ID                                       : 2
Format                                   : DTS
Format/Info                              : Digital Theater Systems
Format profile                           : MA / Core
Mode                                     : 16
Format settings, Endianness              : Big
Codec ID                                 : A_DTS
Duration                                 : 1h 31mn
Bit rate mode                            : Variable
Bit rate                                 : Unknown / 1 509 Kbps
Channel(s)                               : 6 channels
Channel positions                        : Front: L C R, Side: L R, LFE
Sampling rate                            : 48.0 KHz
Bit depth                                : 24 bits
Compression mode                         : Lossless / Lossy
Title                                    : Beyond.the.Reach.2014.1080p.BluRay.REMUX.AVC.DTS-HD.MA.5.1-RARBG
Language                                 : English
Default                                  : Yes
Forced                                   : No
Audio #2
ID                                       : 3
Format                                   : DTS
Format/Info                              : Digital Theater Systems
Mode                                     : 16
Format settings, Endianness              : Big
Codec ID                                 : A_DTS
Duration                                 : 1h 31mn
Bit rate mode                            : Constant
Bit rate                                 : 1 509 Kbps
Channel(s)                               : 6 channels
Channel positions                        : Front: L C R, Side: L R, LFE
Sampling rate                            : 48.0 KHz
Bit depth                                : 24 bits
Compression mode                         : Lossy
Stream size                              : 989 MiB (7%)
Title                                    : Beyond.the.Reach.2014.1080p.BluRay.REMUX.AVC.DTS-HD.MA.5.1-RARBG
Language                                 : English
Default                                  : No
Forced                                   : No
Audio #3
ID                                       : 4
Format                                   : AC-3
Format/Info                              : Audio Coding 3
Mode extension                           : CM (complete main)
Format settings, Endianness              : Big
Codec ID                                 : A_AC3
Duration                                 : 1h 31mn
Bit rate mode                            : Constant
Bit rate                                 : 448 Kbps
Channel(s)                               : 6 channels
Channel positions                        : Front: L C R, Side: L R, LFE
Sampling rate                            : 48.0 KHz
Bit depth                                : 16 bits
Compression mode                         : Lossy
Stream size                              : 294 MiB (2%)
Title                                    : Beyond.the.Reach.2014.1080p.BluRay.REMUX.AVC.DTS-HD.MA.5.1-RARBG
Language                                 : Spanish
Default                                  : No
Forced                                   : No
Audio #4
ID                                       : 5
Format                                   : AC-3
Format/Info                              : Audio Coding 3
Mode extension                           : CM (complete main)
Format settings, Endianness              : Big
Codec ID                                 : A_AC3
Duration                                 : 1h 31mn
Bit rate mode                            : Constant
Bit rate                                 : 192 Kbps
Channel(s)                               : 2 channels
Channel positions                        : Front: L R
Sampling rate                            : 48.0 KHz
Bit depth                                : 16 bits
Compression mode                         : Lossy
Stream size                              : 126 MiB (1%)
Title                                    : Beyond.the.Reach.2014.1080p.BluRay.REMUX.AVC.DTS-HD.MA.5.1-RARBG
Language                                 : English
Default                                  : No
Forced                                   : No
Text #1
ID                                       : 6
Format                                   : PGS
Muxing mode                              : zlib
Codec ID                                 : S_HDMV/PGS
Codec ID/Info                            : Picture based subtitle format used on BDs/HD-DVDs
Language                                 : English
Default                                  : No
Forced                                   : No
Text #2
ID                                       : 7
Format                                   : PGS
Muxing mode                              : zlib
Codec ID                                 : S_HDMV/PGS
Codec ID/Info                            : Picture based subtitle format used on BDs/HD-DVDs
Language                                 : English
Default                                  : No
Forced                                   : No
Text #3
ID                                       : 8
Format                                   : PGS
Muxing mode                              : zlib
Codec ID                                 : S_HDMV/PGS
Codec ID/Info                            : Picture based subtitle format used on BDs/HD-DVDs
Language                                 : Spanish
Default                                  : No
Forced                                   : No
Menu
00:00:00.000                             : en:Chapter 01
00:05:49.349                             : en:Chapter 02
00:11:20.805                             : en:Chapter 03
00:17:36.346                             : en:Chapter 04
00:22:40.942                             : en:Chapter 05
00:30:22.737                             : en:Chapter 06
00:36:41.449                             : en:Chapter 07
00:39:29.700                             : en:Chapter 08
00:45:30.936                             : en:Chapter 09
00:50:46.043                             : en:Chapter 10
00:56:55.120                             : en:Chapter 11
01:02:50.683                             : en:Chapter 12
01:09:03.973                             : en:Chapter 13
01:15:18.347                             : en:Chapter 14
01:20:13.934                             : en:Chapter 15
01:26:28.183                             : en:Chapter 16

精彩剧照

枪长莫及 Beyond.the.Reach.2014.1080p.BluRay.REMUX.AVC.DTS-HD.MA.5.1-RARBG 14.48GB-2.jpg 枪长莫及 Beyond.the.Reach.2014.1080p.BluRay.REMUX.AVC.DTS-HD.MA.5.1-RARBG 14.48GB-3.jpg 枪长莫及 Beyond.the.Reach.2014.1080p.BluRay.REMUX.AVC.DTS-HD.MA.5.1-RARBG 14.48GB-4.jpg 枪长莫及 Beyond.the.Reach.2014.1080p.BluRay.REMUX.AVC.DTS-HD.MA.5.1-RARBG 14.48GB-5.jpg 枪长莫及 Beyond.the.Reach.2014.1080p.BluRay.REMUX.AVC.DTS-HD.MA.5.1-RARBG 14.48GB-6.jpg 枪长莫及 Beyond.the.Reach.2014.1080p.BluRay.REMUX.AVC.DTS-HD.MA.5.1-RARBG 14.48GB-7.jpg
                                       
                                                                                                                                                  


蓝光高清网提示您 点击下方附件名称 马上开始下载

&& empty()

Beyond.the.Reach.2014.1080p.BluRay.REMUX.AVC.DTS-HD.MA.5.1-RARBG.torrent

73.11 KB, 下载次数: 0, 下载积分: 高清币 -8

枪长莫及 Beyond.the.Reach.2014.1080p.BluRay.REMUX.AVC.DTS-HD.MA.5.1-RARBG 14.48GB

加入蓝光高清网VIP会员  无限制下载本站所有资源---点这里

资源下载、资源播放、字幕使用、无法下载等常见问题---点这里
回复

使用道具 举报

您需要登录后才可以回帖 登录 | 立即注册

本版积分规则

关注0

粉丝1

帖子86451

发布主题
最新电影 论坛
本期活动
联系我们
点击这里联系客服

服务时间:
周一到周日8:00-23:30

  • 打开微信扫一扫
    关注公众号

  • 手机QQ扫一扫
    添加客服

手机版蓝光高清网 |网站地图

Powered by Discuz! X3.4 Licensed  © 2001-2013 Comsenz Inc.