[喜剧] 超时空同居 How.Long.Will.I.Love.U.2018.1080p.BluRay.x264-BiPOLAR 7.67GB

[复制链接]
蓝鸟VIP会员 永久VIP 发表于 2020-1-14 10:47:36 | 显示全部楼层 |阅读模式 打印 上一主题 下一主题

马上注册,轻松下载,海量资源,让你轻松玩转社区。

您需要 登录 才可以下载或查看,没有帐号?立即注册

x


译  名 How Long Will I Love U / 口袋宇宙
片  名 超时空同居
年  代 2018
产  地 中国大陆
类  别 喜剧 / 爱情 / 奇幻
语  言 汉语普通话
上映日期 2018-05-18(中国大陆)
IMDb评分  6.5/10 from 696 users
IMDb链接  https://www.imdb.com/title/tt8404272
豆瓣评分 6.8/10 from 399056 users
豆瓣链接 https://movie.douban.com/subject/27133303/
片  长 101分钟
导  演 苏伦 Lun Su
编  剧 苏伦 Lun Su
主  演 雷佳音 Jiayin Lei
       佟丽娅 Liya Tong
       张衣 Yi Zhang
       于和伟 Hewei Yu
       王正佳 Zhengjia Wang
       陶虹 Hong Tao
       李念 Nian Li
       李光洁 Guangjie Li
       杨玏 Le Yang
       范明 Ming Fan
       徐峥 Zheng Xu
       杨迪 Di Yang
       方龄 Ling Fang
       陈昊 Hao Chen


标  签 爱情 | 喜剧 | 搞笑 | 国产 | 奇幻 | 穿越 | 2018 | 中国大陆

简  介  

  生活在2018年的大龄女青年谷小焦(佟丽娅 饰),梦想能够嫁一个能买得起她幼时豪宅的有钱人,却屡屡受挫,只能蜗居在一栋老居民楼里。生活在1999年的陆鸣(雷佳音 饰)手握着自己设计的宏伟蓝图,却始终找不到投资人,同时也面临重大的事业危机。奇怪的时刻来临了,失意的两个人回到家中居然发生了惊人的一幕,同一扇门关上后居然是两个时空的交汇点,两个不同时空的人相遇了,为了拯救自己的未来,两人共商大计,开启了幻想一夜暴富的一系列措施,引发了啼笑皆非的连锁反应。而他们不知道的是,两个时空的重叠是人为的操控,他们每走一步都会引发不可预知的结果,更要命的事,本来只是视对方为赚钱拍档的两人引发了爱的火花……

获奖情况  

  第21届上海国际电影节(2018)
  电影频道传媒大奖 最受传媒关注女主角 佟丽娅
  电影频道传媒大奖 最受传媒关注新人导演 苏伦
  电影频道传媒大奖(提名) 苏伦

  第17届中国电影华表奖(2018)
  优秀女演员奖(提名) 佟丽娅
  优秀青年创作影片

  第26届北京大学生电影节(2019)
  最佳编剧奖 苏伦
  最受大学生欢迎女演员 佟丽娅


该资源信息参数
  1. Video
  2. ID                                       : 1
  3. Format                                   : AVC
  4. Format/Info                              : Advanced Video Codec
  5. Format profile                           : High@L4
  6. Format settings                          : CABAC / 5 Ref Frames
  7. Format settings, CABAC                   : Yes
  8. Format settings, Reference frames        : 5 frames
  9. Codec ID                                 : V_MPEG4/ISO/AVC
  10. Duration                                 : 1 h 40 min
  11. Bit rate                                 : 9 369 kb/s
  12. Width                                    : 1 920 pixels
  13. Height                                   : 808 pixels
  14. Display aspect ratio                     : 2.40:1
  15. Frame rate mode                          : Constant
  16. Frame rate                               : 24.000 FPS
  17. Color space                              : YUV
  18. Chroma subsampling                       : 4:2:0
  19. Bit depth                                : 8 bits
  20. Scan type                                : Progressive
  21. Bits/(Pixel*Frame)                       : 0.252
  22. Stream size                              : 6.59 GiB (86%)
  23. Writing library                          : x264 core 157 r2969 d4099dd
  24. Encoding settings                        : cabac=1 / ref=5 / deblock=1:-3:-3 / analyse=0x3:0x133 / me=umh / subme=9 / psy=1 / psy_rd=1.00:0.00 / mixed_ref=1 / me_range=16 / chroma_me=1 / trellis=2 / 8x8dct=1 / cqm=0 / deadzone=21,11 / fast_pskip=0 / chroma_qp_offset=-2 / threads=18 / lookahead_threads=1 / sliced_threads=0 / nr=0 / decimate=1 / interlaced=0 / bluray_compat=0 / constrained_intra=0 / bframes=3 / b_pyramid=2 / b_adapt=1 / b_bias=0 / direct=3 / weightb=1 / open_gop=0 / weightp=2 / keyint=240 / keyint_min=24 / scenecut=40 / intra_refresh=0 / rc_lookahead=50 / rc=2pass / mbtree=1 / bitrate=9369 / ratetol=1.0 / qcomp=0.60 / qpmin=0 / qpmax=69 / qpstep=4 / cplxblur=20.0 / qblur=0.5 / ip_ratio=1.40 / aq=1:1.00
  25. Language                                 : English
  26. Default                                  : Yes
  27. Forced                                   : No

  28. Audio
  29. ID                                       : 2
  30. Format                                   : DTS
  31. Format/Info                              : Digital Theater Systems
  32. Codec ID                                 : A_DTS
  33. Duration                                 : 1 h 40 min
  34. Bit rate mode                            : Constant
  35. Bit rate                                 : 1 509 kb/s
  36. Channel(s)                               : 6 channels
  37. Channel layout                           : C L R Ls Rs LFE
  38. Sampling rate                            : 48.0 kHz
  39. Frame rate                               : 93.750 FPS (512 SPF)
  40. Bit depth                                : 24 bits
  41. Compression mode                         : Lossy
  42. Stream size                              : 1.06 GiB (14%)
  43. Language                                 : Chinese
  44. Default                                  : Yes
  45. Forced                                   : No

  46. Text
  47. ID                                       : 3
  48. Format                                   : UTF-8
  49. Codec ID                                 : S_TEXT/UTF8
  50. Codec ID/Info                            : UTF-8 Plain Text
  51. Duration                                 : 1 h 36 min
  52. Bit rate                                 : 49 b/s
  53. Count of elements                        : 1564
  54. Stream size                              : 35.2 KiB (0%)
  55. Title                                    : English
  56. Language                                 : English
  57. Default                                  : Yes
  58. Forced                                   : Yes

  59. Menu
  60. 00:00:00.000                             : en:00:00:00.000
  61. 00:09:04.833                             : en:00:09:04.833
  62. 00:14:41.750                             : en:00:14:41.750
  63. 00:21:42.792                             : en:00:21:42.792
  64. 00:26:27.000                             : en:00:26:27.000
  65. 00:33:59.500                             : en:00:33:59.500
  66. 00:41:29.250                             : en:00:41:29.250
  67. 00:48:39.750                             : en:00:48:39.750
  68. 00:56:09.333                             : en:00:56:09.333
  69. 01:10:18.833                             : en:01:10:18.833
  70. 01:21:50.625                             : en:01:21:50.625
  71. 01:27:34.167                             : en:01:27:34.167
  72. 01:34:12.208                             : en:01:34:12.208
复制代码


精彩剧照




蓝光高清网提示您 点击下方附件名称 马上开始下载



温馨提示:
本站资源优先使用迅雷下载,迅雷会员下载,速度基本可以跑满宽带
如果遇到无资源或者版权问题无法下载,推荐使用115网盘离线下载(点击查看115网盘离线下载教程


  • 该资源需要您回复以后 刷新网页进行下载操作

  • 1、How.Long.Will.I.Love.U.2018.1080p.BluRay.x264-BiPOLAR.torrent 39KB 已下载 0 次

加入蓝光高清网VIP会员  无限制下载本站所有资源---点此加入

资源下载、资源播放、字幕使用、无法下载等常见问题---点这里

回复

使用道具 举报

懒得打字嘛,点击右侧快捷回复
高级模式
B Color Image Link Quote Code Smilies 上传

本版积分规则

关注0

粉丝0

帖子71945

发布主题
最新电影 论坛
本期活动
联系我们
点击这里联系客服

服务时间:
周一到周日8:00-23:30

  • 打开微信扫一扫
    关注公众号

  • 手机QQ扫一扫
    添加客服

Archiver手机版蓝光高清网 ( 渝ICP备18006373号-2 )|网站地图

Powered by Discuz! X3.4  © 2001-2013 Comsenz Inc.