[剧情] 下坡路 Downhill.1927.Tinted.Version.1080p.BluRay.x264-BiPOLAR 7.65GB

[复制链接]
蓝鸟VIP会员 永久VIP 发表于 2020-1-14 10:48:38 | 显示全部楼层 |阅读模式 打印 上一主题 下一主题

马上注册,轻松下载,海量资源,让你轻松玩转社区。

您需要 登录 才可以下载或查看,没有帐号?立即注册

x


译  名 下坡路 / When Boys Leave Home / 下坡 / 下山
片  名 Downhill
年  代 1927
产  地 英国
类  别 剧情 / 惊悚 / 冒险
语  言 无对白
上映日期 1927-10-24(英国)
IMDb评分  6.2/10 from 1932 users
IMDb链接  https://www.imdb.com/title/tt0017825
豆瓣评分 6.3/10 from 260 users
豆瓣链接 https://movie.douban.com/subject/3067214/
片  长 80 分钟
导  演 阿尔弗雷德·希区柯克 Alfred Hitchcock
编  剧 康丝坦斯·柯莉儿 Constance Collier
主  演 艾弗·诺韦洛 Ivor Novello
       罗宾·欧文 Robin Irvine
       诺曼·麦金内尔 Norman McKinnel
       伊莎贝尔·琼斯 Isabel Jeans
       伊恩·亨特 Ian Hunter


标  签 希区柯克 | 默片 | 英国 | AlfredHitchcock | 1920s | Alfred_Hitchcock | 1927 | 黑白

简  介  

  大学运动队长罗迪?贝维克(艾弗?诺维诺饰)因为勾引一名女招待并与他生下孩子而受到指责,但他拒绝说出真正的肇事者,他的好友蒂姆?韦克利(罗宾?欧文饰)。他因此被赶出了学校,并且因为不满父亲贝维克爵士(诺曼?麦金尼尔饰)怀疑他的清白而离家出走。他加入了一支歌舞剧团,爱上了一个贪慕虚荣的女演员茱莉亚(伊莎贝尔?琼斯),不久他继承了三万英镑的遗产。他买下豪宅并供养茱莉亚挥霍,茱莉亚却勾搭上了另外一个男演员阿奇(伊恩?亨特)。最终,罗迪失去了财产和茱莉亚。他一贫如洗,来到了巴黎当起陪舞,最终流落到马赛的廉价旅店。旅店老板收留他的原因是想把他送回家后另一笔酬金。罗迪发现自己身处货轮,那些被人伤害、欺骗的回忆一一在他眼中闪现,人生的这段下坡路不断刺激着他。最后几经漂泊终于回到了家中,等待他的是……
  希区柯克曾说其中一个镜头呈现“颠倒站立的诺维洛”是他所有电影中个非常喜爱的时刻之一。


该资源信息参数
  1. Video
  2. ID                                       : 1
  3. Format                                   : AVC
  4. Format/Info                              : Advanced Video Codec
  5. Format profile                           : High@L4
  6. Format settings                          : CABAC / 4 Ref Frames
  7. Format settings, CABAC                   : Yes
  8. Format settings, Reference frames        : 4 frames
  9. Codec ID                                 : V_MPEG4/ISO/AVC
  10. Duration                                 : 1 h 50 min
  11. Bit rate                                 : 9 678 kb/s
  12. Width                                    : 1 456 pixels
  13. Height                                   : 1 080 pixels
  14. Display aspect ratio                     : 4:3
  15. Frame rate mode                          : Constant
  16. Frame rate                               : 19.181 FPS
  17. Color space                              : YUV
  18. Chroma subsampling                       : 4:2:0
  19. Bit depth                                : 8 bits
  20. Scan type                                : Progressive
  21. Bits/(Pixel*Frame)                       : 0.321
  22. Stream size                              : 7.50 GiB (98%)
  23. Writing library                          : x264 core 157 r2969 d4099dd
  24. Encoding settings                        : cabac=1 / ref=4 / deblock=1:-3:-3 / analyse=0x3:0x133 / me=umh / subme=9 / psy=1 / psy_rd=1.00:0.00 / mixed_ref=1 / me_range=16 / chroma_me=1 / trellis=2 / 8x8dct=1 / cqm=0 / deadzone=21,11 / fast_pskip=0 / chroma_qp_offset=-2 / threads=18 / lookahead_threads=1 / sliced_threads=0 / nr=0 / decimate=1 / interlaced=0 / bluray_compat=0 / constrained_intra=0 / bframes=3 / b_pyramid=2 / b_adapt=1 / b_bias=0 / direct=3 / weightb=1 / open_gop=0 / weightp=2 / keyint=200 / keyint_min=20 / scenecut=40 / intra_refresh=0 / rc_lookahead=50 / rc=2pass / mbtree=1 / bitrate=9678 / ratetol=1.0 / qcomp=0.60 / qpmin=0 / qpmax=69 / qpstep=4 / cplxblur=20.0 / qblur=0.5 / ip_ratio=1.40 / aq=1:1.00
  25. Language                                 : English
  26. Default                                  : Yes
  27. Forced                                   : No

  28. Audio
  29. ID                                       : 2
  30. Format                                   : AC-3
  31. Format/Info                              : Audio Coding 3
  32. Commercial name                          : Dolby Digital
  33. Codec ID                                 : A_AC3
  34. Duration                                 : 1 h 50 min
  35. Bit rate mode                            : Constant
  36. Bit rate                                 : 192 kb/s
  37. Channel(s)                               : 2 channels
  38. Channel layout                           : L R
  39. Sampling rate                            : 48.0 kHz
  40. Frame rate                               : 31.250 FPS (1536 SPF)
  41. Bit depth                                : 16 bits
  42. Compression mode                         : Lossy
  43. Stream size                              : 152 MiB (2%)
  44. Service kind                             : Complete Main
  45. Default                                  : Yes
  46. Forced                                   : No

  47. Menu
  48. 00:00:00.000                             : en:00:00:00.000
  49. 00:12:00.511                             : en:00:12:00.511
  50. 00:21:10.853                             : en:00:21:10.853
  51. 00:34:27.816                             : en:00:34:27.816
  52. 00:46:15.398                             : en:00:46:15.398
  53. 00:55:48.220                             : en:00:55:48.220
  54. 01:07:49.774                             : en:01:07:49.774
  55. 01:14:46.357                             : en:01:14:46.357
  56. 01:26:56.128                             : en:01:26:56.128
  57. 01:34:01.469                             : en:01:34:01.469
  58. 01:43:46.429                             : en:01:43:46.429
复制代码


精彩剧照




蓝光高清网提示您 点击下方附件名称 马上开始下载



温馨提示:
本站资源优先使用迅雷下载,迅雷会员下载,速度基本可以跑满宽带
如果遇到无资源或者版权问题无法下载,推荐使用115网盘离线下载(点击查看115网盘离线下载教程


  • 该资源需要您回复以后 刷新网页进行下载操作

  • 1、Downhill.1927.Tinted.Version.1080p.BluRay.x264-BiPOLAR.torrent 39KB 已下载 0 次

加入蓝光高清网VIP会员  无限制下载本站所有资源---点此加入

资源下载、资源播放、字幕使用、无法下载等常见问题---点这里

回复

使用道具 举报

懒得打字嘛,点击右侧快捷回复
高级模式
B Color Image Link Quote Code Smilies 上传

本版积分规则

关注0

粉丝0

帖子71945

发布主题
最新电影 论坛
本期活动
联系我们
点击这里联系客服

服务时间:
周一到周日8:00-23:30

  • 打开微信扫一扫
    关注公众号

  • 手机QQ扫一扫
    添加客服

Archiver手机版蓝光高清网 ( 渝ICP备18006373号-2 )|网站地图

Powered by Discuz! X3.4  © 2001-2013 Comsenz Inc.