[剧情] 野小子们 The.Wild.Boys.2017.READNFO.1080p.BluRay.x264-USURY 9.85GB

[复制链接]
蓝鸟 发表于 2020-1-14 10:49:34 | 显示全部楼层 |阅读模式 打印 上一主题 下一主题

野小子们 The.Wild.Boys.2017.READNFO.1080p.BluRay.x264-USURY 9.85GB

野小子们 The.Wild.Boys.2017.READNFO.1080p.BluRay.x264-USURY 9.85GB


译  名 野小子们 / The Wild Boys / 恶童超级歪(台)
片  名 Les Gar?ons sauvages
年  代 2017
产  地 法国
类  别 剧情 / 悬疑 / 奇幻 / 冒险
语  言 法语 / 英语
上映日期 2017-09-04(威尼斯电影节) / 2018-02-28(法国)
IMDb评分  6.9/10 from 1816 users
IMDb链接  https://www.imdb.com/title/tt6340640
豆瓣评分 7.2/10 from 3859 users
豆瓣链接 https://movie.douban.com/subject/26740543/
片  长 110分钟
导  演 贝特朗·芒蒂格 Bertrand Mandico
编  剧 贝特朗·芒蒂格 Bertrand Mandico
主  演 保利娜·洛里拉德 Pauline Lorillard
       维马拉·庞斯 Vimala Pons
       戴安·罗赛尔 Diane Rouxel
       安纳尔·斯诺克 Ana?l Snoek
       玛蒂尔德·瓦尔尼耶 Mathilde Warnier
       萨姆·卢维克 Sam Louwyck
       埃琳娜·勒文松 Elina L?wensohn
       娜塔莉·理查德 Nathalie Richard
       萝拉·克雷顿 Lola Créton


标  签 法国 | 奇幻 | 实验 | 情色 | 2017 | 青春 | 剧情 | 冒险

简  介  

  法国《电影手册》2018年度期待榜单重点推荐影片之一,影片采用16mm胶片拍摄,具有极致的迷幻色彩,影像超级大胆,故事讲述5个热爱艺术的“野小子”的罪恶之行,让人想到库布里克的《发条橙》,而这5位“野小子”则正由5位女演员“扮演”,涉及到了不少情色元素,探讨了性别结构。

获奖情况  

  第74届威尼斯电影节(2017)
  酷儿狮奖(提名) 贝特朗·芒蒂格


该资源信息参数
  1. Video
  2. ID                                       : 1
  3. Format                                   : AVC
  4. Format/Info                              : Advanced Video Codec
  5. Format profile                           : High@L4
  6. Format settings                          : CABAC / 4 Ref Frames
  7. Format settings, CABAC                   : Yes
  8. Format settings, Reference frames        : 4 frames
  9. Codec ID                                 : V_MPEG4/ISO/AVC
  10. Duration                                 : 1 h 50 min
  11. Bit rate                                 : 11.3 Mb/s
  12. Width                                    : 1 920 pixels
  13. Height                                   : 1 080 pixels
  14. Display aspect ratio                     : 16:9
  15. Frame rate mode                          : Constant
  16. Frame rate                               : 24.000 FPS
  17. Color space                              : YUV
  18. Chroma subsampling                       : 4:2:0
  19. Bit depth                                : 8 bits
  20. Scan type                                : Progressive
  21. Bits/(Pixel*Frame)                       : 0.226
  22. Stream size                              : 8.67 GiB (88%)
  23. Writing library                          : x264 core 157 r2969 d4099dd
  24. Encoding settings                        : cabac=1 / ref=4 / deblock=1:-3:-3 / analyse=0x3:0x133 / me=umh / subme=9 / psy=1 / psy_rd=1.00:0.00 / mixed_ref=1 / me_range=16 / chroma_me=1 / trellis=2 / 8x8dct=1 / cqm=0 / deadzone=21,11 / fast_pskip=0 / chroma_qp_offset=-2 / threads=18 / lookahead_threads=1 / sliced_threads=0 / nr=0 / decimate=1 / interlaced=0 / bluray_compat=0 / constrained_intra=0 / bframes=3 / b_pyramid=2 / b_adapt=1 / b_bias=0 / direct=3 / weightb=1 / open_gop=0 / weightp=2 / keyint=240 / keyint_min=24 / scenecut=40 / intra_refresh=0 / rc_lookahead=50 / rc=2pass / mbtree=1 / bitrate=11263 / ratetol=1.0 / qcomp=0.60 / qpmin=0 / qpmax=69 / qpstep=4 / cplxblur=20.0 / qblur=0.5 / ip_ratio=1.40 / aq=1:1.00
  25. Language                                 : English
  26. Default                                  : Yes
  27. Forced                                   : No

  28. Audio
  29. ID                                       : 2
  30. Format                                   : DTS
  31. Format/Info                              : Digital Theater Systems
  32. Codec ID                                 : A_DTS
  33. Duration                                 : 1 h 50 min
  34. Bit rate mode                            : Constant
  35. Bit rate                                 : 1 509 kb/s
  36. Channel(s)                               : 6 channels
  37. Channel layout                           : C L R Ls Rs LFE
  38. Sampling rate                            : 48.0 kHz
  39. Frame rate                               : 93.750 FPS (512 SPF)
  40. Bit depth                                : 24 bits
  41. Compression mode                         : Lossy
  42. Stream size                              : 1.16 GiB (12%)
  43. Language                                 : French
  44. Default                                  : Yes
  45. Forced                                   : No

  46. Text #1
  47. ID                                       : 3
  48. Format                                   : UTF-8
  49. Codec ID                                 : S_TEXT/UTF8
  50. Codec ID/Info                            : UTF-8 Plain Text
  51. Duration                                 : 1 h 45 min
  52. Bit rate                                 : 25 b/s
  53. Count of elements                        : 794
  54. Stream size                              : 19.8 KiB (0%)
  55. Title                                    : English
  56. Language                                 : English
  57. Default                                  : Yes
  58. Forced                                   : Yes

  59. Text #2
  60. ID                                       : 4
  61. Format                                   : UTF-8
  62. Codec ID                                 : S_TEXT/UTF8
  63. Codec ID/Info                            : UTF-8 Plain Text
  64. Duration                                 : 1 h 49 min
  65. Bit rate                                 : 31 b/s
  66. Count of elements                        : 1090
  67. Stream size                              : 25.6 KiB (0%)
  68. Title                                    : English SDH
  69. Language                                 : English
  70. Default                                  : No
  71. Forced                                   : No

  72. Menu
  73. 00:00:00.000                             : en:00:00:00.000
  74. 00:09:32.458                             : en:00:09:32.458
  75. 00:28:06.625                             : en:00:28:06.625
  76. 00:40:59.208                             : en:00:40:59.208
  77. 00:54:24.583                             : en:00:54:24.583
  78. 01:07:08.542                             : en:01:07:08.542
  79. 01:23:04.500                             : en:01:23:04.500
  80. 01:35:44.583                             : en:01:35:44.583
复制代码


精彩剧照

野小子们 The.Wild.Boys.2017.READNFO.1080p.BluRay.x264-USURY 9.85GB

野小子们 The.Wild.Boys.2017.READNFO.1080p.BluRay.x264-USURY 9.85GB



蓝光高清网提示您 点击下方附件名称 马上开始下载

The.Wild.Boys.2017.READNFO.1080p.BluRay.x264-USURY.torrent 
         (50.18 KB    阅读权限: 0)
加入蓝光高清网VIP会员  无限制下载本站所有资源---点这里

资源下载、资源播放、字幕使用、无法下载等常见问题---点这里
回复

使用道具 举报

精彩评论1

nf81 发表于 2020-1-14 10:49:59 | 显示全部楼层
谢谢  下载了  3Q
回复

使用道具 举报

您需要登录后才可以回帖 登录 | 立即注册

本版积分规则

关注0

粉丝1

帖子86513

发布主题
最新电影 论坛
本期活动
联系我们
点击这里联系客服

服务时间:
周一到周日8:00-23:30

  • 打开微信扫一扫
    关注公众号

  • 手机QQ扫一扫
    添加客服

手机版蓝光高清网 |网站地图

Powered by Discuz! X3.4 Licensed  © 2001-2013 Comsenz Inc.