[其它] 尼斯印象 A.Propos.de.Nice.1930.1080p.BluRay.x264-BiPOLAR 2.18GB

[复制链接]
蓝鸟 发表于 2020-1-14 10:50:32 | 显示全部楼层 |阅读模式 打印 上一主题 下一主题

尼斯印象 A.Propos.de.Nice.1930.1080p.BluRay.x264-BiPOLAR 2.18GB

尼斯印象 A.Propos.de.Nice.1930.1080p.BluRay.x264-BiPOLAR 2.18GB


译  名 尼斯印象
片  名 à propos de Nice
年  代 1930
产  地 法国
类  别 纪录片 / 短片
语  言 无对白
上映日期 1930-05-28
IMDb评分  7.5/10 from 3563 users
IMDb链接  https://www.imdb.com/title/tt0021576
豆瓣评分 8.1/10 from 2016 users
豆瓣链接 https://movie.douban.com/subject/1401909/
片  长 France: 25 分钟
导  演 让·维果 Jean Vigo
编  剧 Jean Vigo

标  签 法国 | 纪录片 | 让·维果 | 短片 | 默片 | 1930s | 法国电影 | Jean_Vigo

简  介  

  What starts off as a conventional travelogue turns into a satirical portrait of the town of Nice on the French Cote d"Azur, especially its wealthy inhabitants.


该资源信息参数
  1. Video
  2. ID                                       : 1
  3. Format                                   : AVC
  4. Format/Info                              : Advanced Video Codec
  5. Format profile                           : High@L4
  6. Format settings                          : CABAC / 4 Ref Frames
  7. Format settings, CABAC                   : Yes
  8. Format settings, Reference frames        : 4 frames
  9. Codec ID                                 : V_MPEG4/ISO/AVC
  10. Duration                                 : 23 min 41 s
  11. Bit rate                                 : 11.7 Mb/s
  12. Width                                    : 1 440 pixels
  13. Height                                   : 1 080 pixels
  14. Display aspect ratio                     : 4:3
  15. Frame rate mode                          : Constant
  16. Frame rate                               : 24.000 FPS
  17. Color space                              : YUV
  18. Chroma subsampling                       : 4:2:0
  19. Bit depth                                : 8 bits
  20. Scan type                                : Progressive
  21. Bits/(Pixel*Frame)                       : 0.312
  22. Stream size                              : 1.93 GiB (88%)
  23. Writing library                          : x264 core 157 r2969 d4099dd
  24. Encoding settings                        : cabac=1 / ref=4 / deblock=1:-3:-3 / analyse=0x3:0x133 / me=umh / subme=9 / psy=1 / psy_rd=1.00:0.00 / mixed_ref=1 / me_range=16 / chroma_me=1 / trellis=2 / 8x8dct=1 / cqm=0 / deadzone=21,11 / fast_pskip=0 / chroma_qp_offset=-2 / threads=18 / lookahead_threads=1 / sliced_threads=0 / nr=0 / decimate=1 / interlaced=0 / bluray_compat=0 / constrained_intra=0 / bframes=3 / b_pyramid=2 / b_adapt=1 / b_bias=0 / direct=3 / weightb=1 / open_gop=0 / weightp=2 / keyint=240 / keyint_min=24 / scenecut=40 / intra_refresh=0 / rc_lookahead=50 / rc=2pass / mbtree=1 / bitrate=11657 / ratetol=1.0 / qcomp=0.60 / qpmin=0 / qpmax=69 / qpstep=4 / cplxblur=20.0 / qblur=0.5 / ip_ratio=1.40 / aq=1:1.00
  25. Language                                 : English
  26. Default                                  : Yes
  27. Forced                                   : No

  28. Audio #1
  29. ID                                       : 2
  30. Format                                   : DTS
  31. Format/Info                              : Digital Theater Systems
  32. Codec ID                                 : A_DTS
  33. Duration                                 : 23 min 41 s
  34. Bit rate mode                            : Constant
  35. Bit rate                                 : 768 kb/s
  36. Channel(s)                               : 2 channels
  37. Channel layout                           : L R
  38. Sampling rate                            : 48.0 kHz
  39. Frame rate                               : 93.750 FPS (512 SPF)
  40. Bit depth                                : 24 bits
  41. Compression mode                         : Lossy
  42. Stream size                              : 130 MiB (6%)
  43. Default                                  : Yes
  44. Forced                                   : No

  45. Audio #2
  46. ID                                       : 3
  47. Format                                   : DTS
  48. Format/Info                              : Digital Theater Systems
  49. Codec ID                                 : A_DTS
  50. Duration                                 : 23 min 41 s
  51. Bit rate mode                            : Constant
  52. Bit rate                                 : 768 kb/s
  53. Channel(s)                               : 2 channels
  54. Channel layout                           : L R
  55. Sampling rate                            : 48.0 kHz
  56. Frame rate                               : 93.750 FPS (512 SPF)
  57. Bit depth                                : 24 bits
  58. Compression mode                         : Lossy
  59. Stream size                              : 130 MiB (6%)
  60. Default                                  : No
  61. Forced                                   : No

  62. Text #1
  63. ID                                       : 4
  64. Format                                   : UTF-8
  65. Codec ID                                 : S_TEXT/UTF8
  66. Codec ID/Info                            : UTF-8 Plain Text
  67. Duration                                 : 25 s 500 ms
  68. Bit rate                                 : 141 b/s
  69. Count of elements                        : 10
  70. Stream size                              : 450 Bytes (0%)
  71. Title                                    : English
  72. Language                                 : English
  73. Default                                  : Yes
  74. Forced                                   : Yes

  75. Text #2
  76. ID                                       : 5
  77. Format                                   : UTF-8
  78. Codec ID                                 : S_TEXT/UTF8
  79. Codec ID/Info                            : UTF-8 Plain Text
  80. Duration                                 : 23 min 22 s
  81. Bit rate                                 : 3 b/s
  82. Count of elements                        : 45
  83. Stream size                              : 535 Bytes (0%)
  84. Title                                    : French
  85. Language                                 : French
  86. Default                                  : No
  87. Forced                                   : No

  88. Menu
  89. 00:00:00.000                             : en:00:00:00.000
  90. 00:00:05.500                             : en:00:00:05.500
  91. 00:10:23.667                             : en:00:10:23.667
复制代码


精彩剧照

尼斯印象 A.Propos.de.Nice.1930.1080p.BluRay.x264-BiPOLAR 2.18GB

尼斯印象 A.Propos.de.Nice.1930.1080p.BluRay.x264-BiPOLAR 2.18GB



蓝光高清网提示您 点击下方附件名称 马上开始下载

A.Propos.de.Nice.1930.1080p.BluRay.x264-BiPOLAR.torrent 
         (22.66 KB    阅读权限: 0)
加入蓝光高清网VIP会员  无限制下载本站所有资源---点这里

资源下载、资源播放、字幕使用、无法下载等常见问题---点这里
回复

使用道具 举报

精彩评论1

bjork 发表于 2020-1-14 10:55:06 | 显示全部楼层
支持一下
回复

使用道具 举报

您需要登录后才可以回帖 登录 | 立即注册

本版积分规则

关注0

粉丝1

帖子86440

发布主题
最新电影 论坛
本期活动
联系我们
点击这里联系客服

服务时间:
周一到周日8:00-23:30

  • 打开微信扫一扫
    关注公众号

  • 手机QQ扫一扫
    添加客服

手机版蓝光高清网 |网站地图

Powered by Discuz! X3.4 Licensed  © 2001-2013 Comsenz Inc.