[其它] 晚安布鲁克林-死亡音频的故事 Goodnight.Brooklyn.The.Story.of.Death.by.Audio.2016.1080p.BluRay.x264-HANDJOB 7.21GB

[复制链接]
蓝鸟 发表于 2020-1-14 10:51:36 | 显示全部楼层 |阅读模式 打印 上一主题 下一主题

晚安布鲁克林-死亡音频的故事 Goodnight.Brooklyn.The.Story.of.Death.by.Audio.2016.1080p.BluRay.x264-HA ...

晚安布鲁克林-死亡音频的故事 Goodnight.Brooklyn.The.Story.of.Death.by.Audio.2016.1080p.BluRay.x264-HA ...


译  名 晚安布鲁克林-死亡音频的故事 / Goodnight Brooklyn
片  名 Goodnight Brooklyn - The Story of Death by Audio
年  代 2016
产  地 美国
类  别 纪录片 / 音乐 / 传记
语  言 英语
上映日期 2016-03-14(美国)
IMDb评分  7.9/10 from 46 users
IMDb链接  https://www.imdb.com/title/tt5492608
豆瓣评分 0/10 from 0 users
豆瓣链接 https://movie.douban.com/subject/26961891/
片  长 83分钟
导  演 Matthew Conboy
主  演 Oliver Ackermann
       Jason Amos
       Michael Azerrad
       Brian Chippendale
       Matthew Conboy
       Dan Deacon
       Stephanie Gross
       Mark Kleback
       Bill Pearis
       Greg Saunler
       The Cat
       Edan Wilber
       Brendan Shera


标  签 紀錄片 | 美國 | 美國電影 | 纪录片 | 城市游牧影展 | 2016 | 音樂 | 空間

简  介  

  Death By Audio, an underground venue, is forced to close in 2014. The film focuses on the struggles of maintaining a community in the face of Brooklyn property development, hostile construction workers and a one billion-dollar company.


该资源信息参数
  1. Video
  2. ID                                       : 1
  3. Format                                   : AVC
  4. Format/Info                              : Advanced Video Codec
  5. Format profile                           : High@L4
  6. Format settings                          : CABAC / 4 Ref Frames
  7. Format settings, CABAC                   : Yes
  8. Format settings, Reference frames        : 4 frames
  9. Codec ID                                 : V_MPEG4/ISO/AVC
  10. Duration                                 : 1 h 22 min
  11. Bit rate                                 : 11.8 Mb/s
  12. Width                                    : 1 920 pixels
  13. Height                                   : 1 080 pixels
  14. Display aspect ratio                     : 16:9
  15. Frame rate mode                          : Constant
  16. Frame rate                               : 23.976 (24000/1001) FPS
  17. Color space                              : YUV
  18. Chroma subsampling                       : 4:2:0
  19. Bit depth                                : 8 bits
  20. Scan type                                : Progressive
  21. Bits/(Pixel*Frame)                       : 0.238
  22. Stream size                              : 6.84 GiB (95%)
  23. Writing library                          : x264 core 157 r2935 545de2f
  24. Encoding settings                        : cabac=1 / ref=4 / deblock=1:-3:-3 / analyse=0x3:0x133 / me=umh / subme=10 / psy=1 / psy_rd=1.00:0.00 / mixed_ref=1 / me_range=32 / chroma_me=1 / trellis=2 / 8x8dct=1 / cqm=0 / deadzone=21,11 / fast_pskip=0 / chroma_qp_offset=-2 / threads=24 / lookahead_threads=6 / sliced_threads=0 / nr=0 / decimate=0 / interlaced=0 / bluray_compat=0 / constrained_intra=0 / bframes=16 / b_pyramid=2 / b_adapt=2 / b_bias=0 / direct=3 / weightb=1 / open_gop=0 / weightp=2 / keyint=240 / keyint_min=24 / scenecut=40 / intra_refresh=0 / rc_lookahead=60 / rc=crf / mbtree=0 / crf=21.2 / qcomp=0.60 / qpmin=0 / qpmax=69 / qpstep=4 / vbv_maxrate=62500 / vbv_bufsize=78125 / crf_max=0.0 / nal_hrd=none / filler=0 / ip_ratio=1.40 / pb_ratio=1.30 / aq=2:1.00
  25. Language                                 : English
  26. Default                                  : Yes
  27. Forced                                   : No
  28. Color range                              : Limited
  29. Color primaries                          : BT.709
  30. Transfer characteristics                 : BT.709
  31. Matrix coefficients                      : BT.709

  32. Audio
  33. ID                                       : 2
  34. Format                                   : AC-3
  35. Format/Info                              : Audio Coding 3
  36. Commercial name                          : Dolby Digital
  37. Codec ID                                 : A_AC3
  38. Duration                                 : 1 h 22 min
  39. Bit rate mode                            : Constant
  40. Bit rate                                 : 640 kb/s
  41. Channel(s)                               : 6 channels
  42. Channel layout                           : L R C LFE Ls Rs
  43. Sampling rate                            : 48.0 kHz
  44. Frame rate                               : 31.250 FPS (1536 SPF)
  45. Bit depth                                : 16 bits
  46. Compression mode                         : Lossy
  47. Stream size                              : 379 MiB (5%)
  48. Language                                 : English
  49. Service kind                             : Complete Main
  50. Default                                  : Yes
  51. Forced                                   : No

  52. Text
  53. ID                                       : 3
  54. Format                                   : UTF-8
  55. Codec ID                                 : S_TEXT/UTF8
  56. Codec ID/Info                            : UTF-8 Plain Text
  57. Duration                                 : 1 h 18 min
  58. Bit rate                                 : 77 b/s
  59. Count of elements                        : 1065
  60. Stream size                              : 44.5 KiB (0%)
  61. Language                                 : English
  62. Default                                  : No
  63. Forced                                   : No

  64. Menu
  65. 00:00:00.000                             : :Chapter 1
  66. 00:07:56.226                             : :Chapter 2
  67. 00:18:19.765                             : :Chapter 3
  68. 00:27:34.027                             : :Chapter 4
  69. 00:36:01.993                             : :Chapter 5
  70. 00:45:25.556                             : :Chapter 6
  71. 00:52:15.758                             : :Chapter 7
  72. 01:03:36.187                             : :Chapter 8
  73. 01:12:50.449                             : :Chapter 9
复制代码


精彩剧照

晚安布鲁克林-死亡音频的故事 Goodnight.Brooklyn.The.Story.of.Death.by.Audio.2016.1080p.BluRay.x264-HA ...

晚安布鲁克林-死亡音频的故事 Goodnight.Brooklyn.The.Story.of.Death.by.Audio.2016.1080p.BluRay.x264-HA ...

晚安布鲁克林-死亡音频的故事 Goodnight.Brooklyn.The.Story.of.Death.by.Audio.2016.1080p.BluRay.x264-HA ...

晚安布鲁克林-死亡音频的故事 Goodnight.Brooklyn.The.Story.of.Death.by.Audio.2016.1080p.BluRay.x264-HA ...

晚安布鲁克林-死亡音频的故事 Goodnight.Brooklyn.The.Story.of.Death.by.Audio.2016.1080p.BluRay.x264-HA ...

晚安布鲁克林-死亡音频的故事 Goodnight.Brooklyn.The.Story.of.Death.by.Audio.2016.1080p.BluRay.x264-HA ...



蓝光高清网提示您 点击下方附件名称 马上开始下载

Goodnight.Brooklyn.The.Story.of.Death.by.Audio.2016.1080p.BluRay.x264-HANDJOB.torrent 
         (36.63 KB    阅读权限: 0)
加入蓝光高清网VIP会员  无限制下载本站所有资源---点这里

资源下载、资源播放、字幕使用、无法下载等常见问题---点这里
回复

使用道具 举报

您需要登录后才可以回帖 登录 | 立即注册

本版积分规则

关注0

粉丝1

帖子86513

发布主题
最新电影 论坛
本期活动
联系我们
点击这里联系客服

服务时间:
周一到周日8:00-23:30

  • 打开微信扫一扫
    关注公众号

  • 手机QQ扫一扫
    添加客服

手机版蓝光高清网 |网站地图

Powered by Discuz! X3.4 Licensed  © 2001-2013 Comsenz Inc.