[音乐] 西部明星/西部之星 Western.Stars.2019.1080p.BluRay.x264-CADAVER 5.47GB

[复制链接]
蓝鸟VIP会员 永久VIP 发表于 2020-1-14 10:52:36 | 显示全部楼层 |阅读模式 打印 上一主题 下一主题

马上注册,轻松下载,海量资源,让你轻松玩转社区。

您需要 登录 才可以下载或查看,没有帐号?立即注册

x


译  名 西部明星 / 西部之星
片  名 Western Stars
年  代 2019
产  地 美国
类  别 纪录片 / 音乐
语  言 英语
上映日期 2019-09-12(多伦多电影节) / 2019-10-25(美国)
IMDb评分  7.6/10 from 747 users
IMDb链接  https://www.imdb.com/title/tt10687158
豆瓣评分 0/10 from 0 users
豆瓣链接 https://movie.douban.com/subject/34663538/
片  长 83分钟
导  演 托姆·齐穆尼 Thom Zimny / 布鲁斯·斯普林斯汀 Bruce Springsteen
主  演 布鲁斯·斯普林斯汀 Bruce Springsteen


标  签 美国 | Documentary | 2019 | 纪录片 | 等候 | 电影 | 摇滚 | music

简  介  

  该片也是70岁的斯普林斯汀的最新专辑的同名电影,他与《斯普林斯汀在百老汇》的导演Thom Zimny一起执导,聚焦他如今的生活、心态和对音乐和舞台的感悟,还有他那有100年历史、“充满灵性”的谷仓,他如何回头和向前看,“我花了35年除掉自己性格中那些毁灭性的东西”。

获奖情况  

  第67届美国音效剪辑协会奖(2020)
  金卷轴奖 最佳音乐片音乐剪辑(提名)


该资源信息参数
  1. Video
  2. ID                                       : 1
  3. Format                                   : AVC
  4. Format/Info                              : Advanced Video Codec
  5. Format profile                           : High@L4
  6. Format settings                          : CABAC / 5 Ref Frames
  7. Format settings, CABAC                   : Yes
  8. Format settings, Reference frames        : 5 frames
  9. Codec ID                                 : V_MPEG4/ISO/AVC
  10. Duration                                 : 1 h 23 min
  11. Bit rate                                 : 8 767 kb/s
  12. Width                                    : 1 920 pixels
  13. Height                                   : 808 pixels
  14. Display aspect ratio                     : 2.40:1
  15. Frame rate mode                          : Constant
  16. Frame rate                               : 23.976 (24000/1001) FPS
  17. Color space                              : YUV
  18. Chroma subsampling                       : 4:2:0
  19. Bit depth                                : 8 bits
  20. Scan type                                : Progressive
  21. Bits/(Pixel*Frame)                       : 0.236
  22. Stream size                              : 5.09 GiB (93%)
  23. Writing library                          : x264 core 158 r2988 7817004
  24. Encoding settings                        : cabac=1 / ref=5 / deblock=1:-3:-3 / analyse=0x3:0x133 / me=umh / subme=9 / psy=1 / psy_rd=1.00:0.00 / mixed_ref=1 / me_range=24 / chroma_me=1 / trellis=1 / 8x8dct=1 / cqm=0 / deadzone=21,11 / fast_pskip=0 / chroma_qp_offset=-2 / threads=24 / lookahead_threads=4 / sliced_threads=0 / nr=0 / decimate=1 / interlaced=0 / bluray_compat=0 / constrained_intra=0 / bframes=8 / b_pyramid=2 / b_adapt=2 / b_bias=0 / direct=3 / weightb=1 / open_gop=0 / weightp=2 / keyint=250 / keyint_min=23 / scenecut=40 / intra_refresh=0 / rc_lookahead=60 / rc=2pass / mbtree=1 / bitrate=8767 / ratetol=1.0 / qcomp=0.60 / qpmin=0 / qpmax=69 / qpstep=4 / cplxblur=20.0 / qblur=0.5 / vbv_maxrate=62500 / vbv_bufsize=78125 / nal_hrd=none / filler=0 / ip_ratio=1.40 / aq=1:1.00
  25. Default                                  : Yes
  26. Forced                                   : No

  27. Audio
  28. ID                                       : 2
  29. Format                                   : AC-3
  30. Format/Info                              : Audio Coding 3
  31. Commercial name                          : Dolby Digital
  32. Codec ID                                 : A_AC3
  33. Duration                                 : 1 h 23 min
  34. Bit rate mode                            : Constant
  35. Bit rate                                 : 640 kb/s
  36. Channel(s)                               : 6 channels
  37. Channel layout                           : L R C LFE Ls Rs
  38. Sampling rate                            : 48.0 kHz
  39. Frame rate                               : 31.250 FPS (1536 SPF)
  40. Bit depth                                : 16 bits
  41. Compression mode                         : Lossy
  42. Stream size                              : 381 MiB (7%)
  43. Language                                 : English
  44. Service kind                             : Complete Main
  45. Default                                  : Yes
  46. Forced                                   : No

  47. Menu
  48. 00:00:00.000                             : en:Chapter 01
  49. 00:00:05.172                             : en:Chapter 02
  50. 00:03:47.811                             : en:Chapter 03
  51. 00:09:11.593                             : en:Chapter 04
  52. 00:15:24.799                             : en:Chapter 05
  53. 00:20:37.862                             : en:Chapter 06
  54. 00:25:14.263                             : en:Chapter 07
  55. 00:31:14.164                             : en:Chapter 08
  56. 00:37:18.528                             : en:Chapter 09
  57. 00:43:57.844                             : en:Chapter 10
  58. 00:48:21.816                             : en:Chapter 11
  59. 00:50:21.060                             : en:Chapter 12
  60. 00:58:10.070                             : en:Chapter 13
  61. 01:03:04.322                             : en:Chapter 14
  62. 01:09:51.729                             : en:Chapter 15
  63. 01:15:58.471                             : en:Chapter 16
  64. 01:18:59.526                             : en:Chapter 17
复制代码


精彩剧照




蓝光高清网提示您 点击下方附件名称 马上开始下载



温馨提示:
本站资源优先使用迅雷下载,迅雷会员下载,速度基本可以跑满宽带
如果遇到无资源或者版权问题无法下载,推荐使用115网盘离线下载(点击查看115网盘离线下载教程


  • 该资源需要您回复以后 刷新网页进行下载操作

  • 1、Western.Stars.2019.1080p.BluRay.x264-CADAVER.torrent 28KB 已下载 0 次

加入蓝光高清网VIP会员  无限制下载本站所有资源---点此加入

资源下载、资源播放、字幕使用、无法下载等常见问题---点这里

回复

使用道具 举报

懒得打字嘛,点击右侧快捷回复
高级模式
B Color Image Link Quote Code Smilies 上传

本版积分规则

关注0

粉丝0

帖子72186

发布主题
最新电影 论坛
本期活动
联系我们
点击这里联系客服

服务时间:
周一到周日8:00-23:30

  • 打开微信扫一扫
    关注公众号

  • 手机QQ扫一扫
    添加客服

Archiver手机版蓝光高清网 ( 渝ICP备18006373号-2 )|网站地图

Powered by Discuz! X3.4  © 2001-2013 Comsenz Inc.