[剧情] 圣诞述异 The.Holly.and.the.Ivy.1952.1080p.BluRay.x264-GHOULS 5.47GB

[复制链接]
蓝鸟 发表于 2020-1-14 10:53:40 | 显示全部楼层 |阅读模式 打印 上一主题 下一主题

圣诞述异 The.Holly.and.the.Ivy.1952.1080p.BluRay.x264-GHOULS 5.47GB

圣诞述异 The.Holly.and.the.Ivy.1952.1080p.BluRay.x264-GHOULS 5.47GB


译  名 圣诞述异
片  名 The Holly and the Ivy
年  代 1952
产  地 英国
类  别 剧情
语  言 英语
上映日期 1952-12-22
IMDb评分  7.6/10 from 902 users
IMDb链接  https://www.imdb.com/title/tt0044716
豆瓣评分 0/10 from 0 users
豆瓣链接 https://movie.douban.com/subject/1304956/
片  长 83 分钟
导  演 George More O"Ferrall
编  剧 Anatole de Grunwald / Wynyard Browne
主  演 拉尔夫·理查德森 Ralph Richardson
       西莉亚·约翰逊 Celia Johnson
       玛格丽特·莱顿 Margaret Leighton
       丹霍姆·艾略特 Denholm Elliott
       Hugh Williams


标  签 英国 | 1950s | RalphRichardson | Margaret_Leighton | DenholmElliott | @UK/Ireland

简  介  

  A heartwarming tale of an English minister and his family reunited at Christmas time. Their story includes a remembrance of their WWII trials


该资源信息参数
  1. Video
  2. ID                                       : 1
  3. Format                                   : AVC
  4. Format/Info                              : Advanced Video Codec
  5. Format profile                           : High@L4
  6. Format settings                          : CABAC / 5 Ref Frames
  7. Format settings, CABAC                   : Yes
  8. Format settings, Reference frames        : 5 frames
  9. Codec ID                                 : V_MPEG4/ISO/AVC
  10. Duration                                 : 1 h 20 min
  11. Bit rate                                 : 9 014 kb/s
  12. Width                                    : 1 488 pixels
  13. Height                                   : 1 080 pixels
  14. Display aspect ratio                     : 1.378
  15. Frame rate mode                          : Constant
  16. Frame rate                               : 24.000 FPS
  17. Color space                              : YUV
  18. Chroma subsampling                       : 4:2:0
  19. Bit depth                                : 8 bits
  20. Scan type                                : Progressive
  21. Bits/(Pixel*Frame)                       : 0.234
  22. Stream size                              : 5.07 GiB (93%)
  23. Writing library                          : x264 core 158 r2988 7817004
  24. Encoding settings                        : cabac=1 / ref=5 / deblock=1:-3:-3 / analyse=0x3:0x133 / me=umh / subme=9 / psy=1 / psy_rd=1.00:0.00 / mixed_ref=1 / me_range=24 / chroma_me=1 / trellis=1 / 8x8dct=1 / cqm=0 / deadzone=21,11 / fast_pskip=0 / chroma_qp_offset=-2 / threads=24 / lookahead_threads=4 / sliced_threads=0 / nr=0 / decimate=1 / interlaced=0 / bluray_compat=0 / constrained_intra=0 / bframes=8 / b_pyramid=2 / b_adapt=2 / b_bias=0 / direct=3 / weightb=1 / open_gop=0 / weightp=2 / keyint=250 / keyint_min=24 / scenecut=40 / intra_refresh=0 / rc_lookahead=60 / rc=2pass / mbtree=1 / bitrate=9014 / ratetol=1.0 / qcomp=0.60 / qpmin=0 / qpmax=69 / qpstep=4 / cplxblur=20.0 / qblur=0.5 / vbv_maxrate=62500 / vbv_bufsize=78125 / nal_hrd=none / filler=0 / ip_ratio=1.40 / aq=1:1.00
  25. Default                                  : Yes
  26. Forced                                   : No

  27. Audio
  28. ID                                       : 2
  29. Format                                   : FLAC
  30. Format/Info                              : Free Lossless Audio Codec
  31. Codec ID                                 : A_FLAC
  32. Duration                                 : 1 h 20 min
  33. Bit rate mode                            : Variable
  34. Bit rate                                 : 689 kb/s
  35. Channel(s)                               : 2 channels
  36. Channel layout                           : L R
  37. Sampling rate                            : 48.0 kHz
  38. Frame rate                               : 10.417 FPS (4608 SPF)
  39. Bit depth                                : 24 bits
  40. Compression mode                         : Lossless
  41. Stream size                              : 398 MiB (7%)
  42. Writing library                          : Lavf58.29.100
  43. Language                                 : English
  44. Default                                  : Yes
  45. Forced                                   : No

  46. Menu
  47. 00:00:00.000                             : en:Chapter 01
  48. 00:08:20.333                             : en:Chapter 02
  49. 00:13:32.542                             : en:Chapter 03
  50. 00:23:05.292                             : en:Chapter 04
  51. 00:29:50.625                             : en:Chapter 05
  52. 00:34:34.833                             : en:Chapter 06
  53. 00:45:40.542                             : en:Chapter 07
  54. 00:53:25.042                             : en:Chapter 08
  55. 00:59:08.625                             : en:Chapter 09
  56. 01:08:34.375                             : en:Chapter 10
  57. 01:16:57.458                             : en:Chapter 11
  58. 01:18:53.958                             : en:Chapter 12
复制代码


精彩剧照

圣诞述异 The.Holly.and.the.Ivy.1952.1080p.BluRay.x264-GHOULS 5.47GB

圣诞述异 The.Holly.and.the.Ivy.1952.1080p.BluRay.x264-GHOULS 5.47GB



蓝光高清网提示您 点击下方附件名称 马上开始下载

The.Holly.and.the.Ivy.1952.1080p.BluRay.x264-GHOULS.torrent 
         (28.21 KB    阅读权限: 0)
加入蓝光高清网VIP会员  无限制下载本站所有资源---点这里

资源下载、资源播放、字幕使用、无法下载等常见问题---点这里
回复

使用道具 举报

精彩评论15

dfkjdkj 发表于 2020-1-14 11:05:14 | 显示全部楼层
谢谢楼主分享
回复

使用道具 举报

shelby 发表于 2020-1-14 11:15:34 | 显示全部楼层
下载来看看
回复

使用道具 举报

sms006 发表于 2020-1-14 11:35:51 | 显示全部楼层
好资源 收藏了 谢谢分享
回复

使用道具 举报

时间的足迹 发表于 2020-1-14 11:41:16 | 显示全部楼层
蓝光高清网是个好地方
回复

使用道具 举报

镜花 发表于 2020-1-14 12:17:09 | 显示全部楼层
楼主幸苦了
回复

使用道具 举报

tianrun668 发表于 2020-1-14 12:53:08 | 显示全部楼层
路过,学习下
回复

使用道具 举报

s992571099 发表于 2020-1-14 14:30:02 | 显示全部楼层
圣诞述异 The.Holly.and.the.Ivy.1952.1080p.BluRay.x264-GHOULS 5.47GB
回复

使用道具 举报

feitain321 发表于 2020-1-14 15:10:49 | 显示全部楼层
不错,支持下楼主
回复

使用道具 举报

suzhoucat 发表于 2020-1-14 15:41:07 | 显示全部楼层
好网站 希望越来越好
回复

使用道具 举报

您需要登录后才可以回帖 登录 | 立即注册

本版积分规则

关注0

粉丝1

帖子86464

发布主题
最新电影 论坛
本期活动
联系我们
点击这里联系客服

服务时间:
周一到周日8:00-23:30

  • 打开微信扫一扫
    关注公众号

  • 手机QQ扫一扫
    添加客服

手机版蓝光高清网 |网站地图

Powered by Discuz! X3.4 Licensed  © 2001-2013 Comsenz Inc.