[科幻] 科学怪人对地底怪兽 Frankenstein.Conquers.The.World.1965.JAPANESE.1080p.BluRay.x264.DTS-FGT 8.47GB

[复制链接]
蓝鸟VIP会员 永久VIP 发表于 2020-1-14 10:54:40 | 显示全部楼层 |阅读模式 打印 上一主题 下一主题

马上注册,轻松下载,海量资源,让你轻松玩转社区。

您需要 登录 才可以下载或查看,没有帐号?立即注册

x


译  名 科学怪人对地底怪兽 / Frankenstein Conquers the World / Frankenstein Meets the Giant Devil Fish / Frankenstein vs. Baragon / 原始怪人大战地底怪兽 / 弗兰克斯坦对地底怪兽 / 法兰克对地底怪兽
片  名 フランケンシュタイン対地底怪獣
年  代 1965
产  地 日本
类  别 科幻 / 恐怖
语  言 日语
上映日期 1965-08-08
IMDb评分  5.4/10 from 1646 users
IMDb链接  https://www.imdb.com/title/tt0059205
豆瓣评分 0/10 from 0 users
豆瓣链接 https://movie.douban.com/subject/2058887/
片  长 90 分钟
导  演 本多猪四郎
编  剧 馬淵薫
主  演 高島忠夫
       Nick Adams
       水野久美
       土屋嘉男
       佐原健二
       伊藤久哉
       沢井桂子


标  签 日本电影 | 特摄 | 日本 | 恐怖 | 本多猪四郎 | 怪兽 | 经典 | 黑色幽默

简  介  

  1945年,盟军突入德国,德国疯狂科学家李然博士研究的项目----科学怪人法兰克的心脏被潜艇秘密转移到了其同盟国日本的广岛陆军医院,供起研究出不死的士兵,然而核子爆炸使一切化为灰勁.十五年后,科学家在广岛研究核子放射能对人类还有环境的研究中,意外的发先了一个孩子,在检测 中发现其虽然受过核子放射能的照射,但一点都没有被污染,经过调查发现原来这个孩子在核子爆炸后迷一样的出现在广岛的英树医院(原广岛陆军医院),而且他还在不停的变大,所以科学家们推测当年的法兰克的心脏在受到了放射能的影响后,发生了异变,他们称其为广岛怪人法兰克.然而这时的法兰克已经变大到人们不可控制的地步,并且逃出了医院,另一方面,在秋田油田,出现了地底怪兽,最后两只巨大的生物在平原相遇,并进行了激烈的战斗,最后法兰克用火战胜了地底怪兽,然而与此同时一只大章鱼在悄悄的接近他.........


该资源信息参数
  1. Video
  2. ID                                       : 1
  3. Format                                   : AVC
  4. Format/Info                              : Advanced Video Codec
  5. Format profile                           : High@L4
  6. Format settings                          : CABAC / 4 Ref Frames
  7. Format settings, CABAC                   : Yes
  8. Format settings, Reference frames        : 4 frames
  9. Codec ID                                 : V_MPEG4/ISO/AVC
  10. Duration                                 : 1 h 33 min
  11. Bit rate                                 : 11.5 Mb/s
  12. Width                                    : 1 920 pixels
  13. Height                                   : 804 pixels
  14. Display aspect ratio                     : 2.40:1
  15. Frame rate mode                          : Constant
  16. Frame rate                               : 23.976 (24000/1001) FPS
  17. Color space                              : YUV
  18. Chroma subsampling                       : 4:2:0
  19. Bit depth                                : 8 bits
  20. Scan type                                : Progressive
  21. Bits/(Pixel*Frame)                       : 0.311
  22. Stream size                              : 7.49 GiB (88%)
  23. Title                                    : Frankenstein.Conquers.The.World.1965.JAPANESE.1080p.BluRay.x264.DTS-FGT
  24. Writing library                          : x264 core 148 r2795M aaa9aa8
  25. Encoding settings                        : cabac=1 / ref=4 / deblock=1:-2:-2 / analyse=0x3:0x113 / me=umh / subme=9 / psy=1 / psy_rd=1.00:0.15 / mixed_ref=1 / me_range=16 / chroma_me=1 / trellis=2 / 8x8dct=1 / cqm=0 / deadzone=21,11 / fast_pskip=1 / chroma_qp_offset=-3 / threads=24 / lookahead_threads=3 / sliced_threads=0 / nr=0 / decimate=1 / interlaced=0 / bluray_compat=0 / constrained_intra=0 / bframes=3 / b_pyramid=2 / b_adapt=1 / b_bias=0 / direct=3 / weightb=1 / open_gop=0 / weightp=2 / keyint=250 / keyint_min=25 / scenecut=40 / intra_refresh=0 / rc_lookahead=50 / rc=2pass / mbtree=1 / bitrate=11500 / ratetol=1.0 / qcomp=0.60 / qpmin=0 / qpmax=69 / qpstep=4 / cplxblur=20.0 / qblur=0.5 / vbv_maxrate=31250 / vbv_bufsize=31250 / nal_hrd=none / filler=0 / ip_ratio=1.40 / aq=1:1.00
  26. Language                                 : Japanese
  27. Default                                  : Yes
  28. Forced                                   : No

  29. Audio
  30. ID                                       : 2
  31. Format                                   : DTS
  32. Format/Info                              : Digital Theater Systems
  33. Codec ID                                 : A_DTS
  34. Duration                                 : 1 h 33 min
  35. Bit rate mode                            : Constant
  36. Bit rate                                 : 1 509 kb/s
  37. Channel(s)                               : 2 channels
  38. Channel layout                           : L R
  39. Sampling rate                            : 48.0 kHz
  40. Frame rate                               : 93.750 FPS (512 SPF)
  41. Bit depth                                : 16 bits
  42. Compression mode                         : Lossy
  43. Stream size                              : 1 006 MiB (12%)
  44. Title                                    : Frankenstein.Conquers.The.World.1965.JAPANESE.1080p.BluRay.x264.DTS-FGT
  45. Language                                 : Japanese
  46. Default                                  : Yes
  47. Forced                                   : No

  48. Text
  49. ID                                       : 3
  50. Format                                   : UTF-8
  51. Codec ID                                 : S_TEXT/UTF8
  52. Codec ID/Info                            : UTF-8 Plain Text
  53. Duration                                 : 1 h 33 min
  54. Bit rate                                 : 36 b/s
  55. Count of elements                        : 740
  56. Stream size                              : 24.6 KiB (0%)
  57. Language                                 : English
  58. Default                                  : Yes
  59. Forced                                   : No

  60. Menu
  61. 00:00:00.000                             : en:Chapter 1
  62. 00:01:38.807                             : en:Chapter 2
  63. 00:07:05.759                             : en:Chapter 3
  64. 00:12:27.956                             : en:Chapter 4
  65. 00:20:47.079                             : en:Chapter 5
  66. 00:21:46.597                             : en:Chapter 6
  67. 00:24:13.452                             : en:Chapter 7
  68. 00:31:40.899                             : en:Chapter 8
  69. 00:34:25.438                             : en:Chapter 9
  70. 00:36:57.132                             : en:Chapter 10
  71. 00:38:29.349                             : en:Chapter 11
  72. 00:40:51.574                             : en:Chapter 12
  73. 00:46:54.228                             : en:Chapter 13
  74. 00:50:28.609                             : en:Chapter 14
  75. 00:55:14.394                             : en:Chapter 15
  76. 01:00:03.517                             : en:Chapter 16
  77. 01:00:48.812                             : en:Chapter 17
  78. 01:02:17.817                             : en:Chapter 18
  79. 01:13:05.339                             : en:Chapter 19
  80. 01:15:44.749                             : en:Chapter 20
  81. 01:18:30.205                             : en:Chapter 21
  82. 01:19:21.882                             : en:Chapter 22
  83. 01:21:05.986                             : en:Chapter 23
  84. 01:29:12.806                             : en:Chapter 24
复制代码


精彩剧照




蓝光高清网提示您 点击下方附件名称 马上开始下载



温馨提示:
本站资源优先使用迅雷下载,迅雷会员下载,速度基本可以跑满宽带
如果遇到无资源或者版权问题无法下载,推荐使用115网盘离线下载(点击查看115网盘离线下载教程


  • 该资源需要您回复以后 刷新网页进行下载操作

  • 1、Frankenstein.Conquers.The.World.1965.JAPANESE.1080p.BluRay.x264.DTS-FGT.torrent 43KB 已下载 0 次

加入蓝光高清网VIP会员  无限制下载本站所有资源---点此加入

资源下载、资源播放、字幕使用、无法下载等常见问题---点这里

回复

使用道具 举报

精彩评论7

mark335 发表于 2020-1-14 11:46:20 | 显示全部楼层
这个帖子不回对不起自己!我想我是一天也不能离开蓝光高清网了

加入蓝光高清网VIP会员  无限制下载本站所有资源---点此加入

资源下载、资源播放、字幕使用、无法下载等常见问题---点这里

回复

使用道具 举报

caicaikiss 发表于 2020-1-14 12:32:38 | 显示全部楼层
蓝光高清网是个好地方

加入蓝光高清网VIP会员  无限制下载本站所有资源---点此加入

资源下载、资源播放、字幕使用、无法下载等常见问题---点这里

回复

使用道具 举报

dong123jinpei 发表于 2020-1-14 13:44:20 | 显示全部楼层
希望蓝光高清网越来越好

加入蓝光高清网VIP会员  无限制下载本站所有资源---点此加入

资源下载、资源播放、字幕使用、无法下载等常见问题---点这里

回复

使用道具 举报

xs6060 发表于 2020-1-14 16:16:45 | 显示全部楼层
刷一波高清币,嘿嘿

加入蓝光高清网VIP会员  无限制下载本站所有资源---点此加入

资源下载、资源播放、字幕使用、无法下载等常见问题---点这里

回复

使用道具 举报

lidanni 发表于 2020-1-14 17:59:28 | 显示全部楼层
好资源 收藏了 谢谢分享

加入蓝光高清网VIP会员  无限制下载本站所有资源---点此加入

资源下载、资源播放、字幕使用、无法下载等常见问题---点这里

回复

使用道具 举报

sadking 发表于 2020-1-14 18:40:46 | 显示全部楼层
感谢楼主的无私分享!

加入蓝光高清网VIP会员  无限制下载本站所有资源---点此加入

资源下载、资源播放、字幕使用、无法下载等常见问题---点这里

回复

使用道具 举报

太米司蚂蚁 发表于 2020-1-14 19:37:14 | 显示全部楼层
不管怎么说就是支持,感谢版主的无私付出

加入蓝光高清网VIP会员  无限制下载本站所有资源---点此加入

资源下载、资源播放、字幕使用、无法下载等常见问题---点这里

回复

使用道具 举报

懒得打字嘛,点击右侧快捷回复
高级模式
B Color Image Link Quote Code Smilies 上传

本版积分规则

关注0

粉丝0

帖子72186

发布主题
最新电影 论坛
本期活动
联系我们
点击这里联系客服

服务时间:
周一到周日8:00-23:30

  • 打开微信扫一扫
    关注公众号

  • 手机QQ扫一扫
    添加客服

Archiver手机版蓝光高清网 ( 渝ICP备18006373号-2 )|网站地图

Powered by Discuz! X3.4  © 2001-2013 Comsenz Inc.