[喜剧] 极道大战争 Yakuza.Apocalypse.2015.JAPANESE.1080p.BluRay.x264-iKiW 10.96GB

[复制链接]
蓝鸟VIP会员 永久VIP 发表于 2020-1-14 10:56:38 | 显示全部楼层 |阅读模式 打印 上一主题 下一主题

马上注册,轻松下载,海量资源,让你轻松玩转社区。

您需要 登录 才可以下载或查看,没有帐号?立即注册

x


译  名 极道大战争 / Gokudo Daisenso / Yakuza Apocalypse : The Great War of the Underworld
片  名 極道大戦争
年  代 2015
产  地 日本
类  别 喜剧 / 动作 / 恐怖
语  言 日语
上映日期 2015-06-20(日本)
IMDb评分  5.5/10 from 3474 users
IMDb链接  https://www.imdb.com/title/tt3675748
豆瓣评分 5.1/10 from 1646 users
豆瓣链接 https://movie.douban.com/subject/25868191/
片  长 115分钟
导  演 三池崇史 Takashi Miike
编  剧 山口义高 Yoshitaka Yamaguchi
主  演 市原隼人 Hayato Ichihara
       雅彦·鲁伊安 Yayan Ruhian
       成海璃子 Riko Narumi
       中川雅也 Lily Franky
       青柳翔 Sho Aoyagi
       高岛礼子 Reiko Takashima
       涩川清彦 Kiyohiko Shibukawa
       优希美青 Mio Yuki
       皮埃尔泷 Pierre Taki
       绪方义博 Denden


标  签 三池崇史 | 日本 | 动作 | 日本电影 | 2015 | 暴力 | 市原隼人 | 电影

简  介  

  在某个偏僻的小镇,神浦组大哥神浦玄洋(Lily Franky 饰)以其顽强的不死之身成为一方霸主。名叫影山亚喜良(市原隼人 饰)的青年仰慕大哥的威仪,渴望有朝一日也能成为贯彻人情和义理的极道大哥。某天,神浦被神父打扮的男人以及功夫高强的刺客狂犬残忍杀害,身在现场的影山一同遭到重创。直到此时他才知道,大哥的真身竟然是吸血鬼!神浦垂死之际,与影山完成了“换杯仪式”,将其转化为黑道吸血鬼。在此之后,神浦组大权落入二当家膳场壮介(高岛礼子 饰)之手,而他们所在的毘沙门仲通商店街也因影山的关系变成了一条黑道吸血鬼横行的可怕街区。
  更为可怕的青蛙杀手即将到来,影山将带着他的吸血鬼大军展开血腥复仇……


该资源信息参数
  1. Video
  2. ID                                       : 1
  3. Format                                   : AVC
  4. Format/Info                              : Advanced Video Codec
  5. Format profile                           : High@L4
  6. Format settings                          : CABAC / 5 Ref Frames
  7. Format settings, CABAC                   : Yes
  8. Format settings, Reference frames        : 5 frames
  9. Codec ID                                 : V_MPEG4/ISO/AVC
  10. Duration                                 : 1 h 55 min
  11. Bit rate                                 : 13.0 Mb/s
  12. Width                                    : 1 920 pixels
  13. Height                                   : 802 pixels
  14. Display aspect ratio                     : 2.40:1
  15. Frame rate mode                          : Constant
  16. Frame rate                               : 23.976 (24000/1001) FPS
  17. Color space                              : YUV
  18. Chroma subsampling                       : 4:2:0
  19. Bit depth                                : 8 bits
  20. Scan type                                : Progressive
  21. Bits/(Pixel*Frame)                       : 0.352
  22. Stream size                              : 10.4 GiB (95%)
  23. Writing library                          : x264 core 142 r2431+42 c69a006 tMod [High@L4 X86_64]
  24. Encoding settings                        : cabac=1 / ref=5 / deblock=1:-3:-3 / analyse=0x3:0x133 / me=umh / subme=11 / psy=1 / fade_compensate=0.00 / psy_rd=1.05:0.05 / mixed_ref=1 / me_range=64 / chroma_me=1 / trellis=2 / 8x8dct=1 / cqm=0 / deadzone=21,11 / fast_pskip=0 / chroma_qp_offset=-3 / threads=12 / lookahead_threads=3 / sliced_threads=0 / nr=0 / decimate=0 / interlaced=0 / bluray_compat=0 / constrained_intra=0 / fgo=0 / bframes=10 / b_pyramid=2 / b_adapt=2 / b_bias=0 / direct=3 / weightb=1 / open_gop=0 / weightp=2 / keyint=250 / keyint_min=23 / scenecut=40 / intra_refresh=0 / rc_lookahead=150 / rc=2pass / mbtree=0 / bitrate=13000 / ratetol=1.0 / qcomp=0.70 / qpmin=0:0:0 / qpmax=69:69:69 / qpstep=4 / cplxblur=20.0 / qblur=0.5 / vbv_maxrate=50000 / vbv_bufsize=50000 / nal_hrd=none / filler=0 / ip_ratio=1.40 / pb_ratio=1.30 / aq=1:0.80 / aq-sensitivity=10.00 / aq-factor=1.00:1.00:1.00 / aq2=0 / aq3=0
  25. Language                                 : Japanese
  26. Default                                  : Yes
  27. Forced                                   : No
  28. Color range                              : Limited
  29. Matrix coefficients                      : BT.709

  30. Audio
  31. ID                                       : 2
  32. Format                                   : AC-3
  33. Format/Info                              : Audio Coding 3
  34. Commercial name                          : Dolby Digital
  35. Codec ID                                 : A_AC3
  36. Duration                                 : 1 h 55 min
  37. Bit rate mode                            : Constant
  38. Bit rate                                 : 640 kb/s
  39. Channel(s)                               : 6 channels
  40. Channel layout                           : L R C LFE Ls Rs
  41. Sampling rate                            : 48.0 kHz
  42. Frame rate                               : 31.250 FPS (1536 SPF)
  43. Bit depth                                : 16 bits
  44. Compression mode                         : Lossy
  45. Stream size                              : 527 MiB (5%)
  46. Language                                 : Japanese
  47. Service kind                             : Complete Main
  48. Default                                  : Yes
  49. Forced                                   : No

  50. Text
  51. ID                                       : 3
  52. Format                                   : UTF-8
  53. Codec ID                                 : S_TEXT/UTF8
  54. Codec ID/Info                            : UTF-8 Plain Text
  55. Duration                                 : 1 h 43 min
  56. Bit rate                                 : 18 b/s
  57. Count of elements                        : 791
  58. Stream size                              : 14.3 KiB (0%)
  59. Language                                 : English
  60. Default                                  : Yes
  61. Forced                                   : No

  62. Menu
  63. 00:00:00.000                             : en:00:00:00.000
  64. 00:03:09.481                             : en:00:03:09.481
  65. 00:11:57.884                             : en:00:11:57.884
  66. 00:20:13.712                             : en:00:20:13.712
  67. 00:31:34.518                             : en:00:31:34.518
  68. 00:44:42.388                             : en:00:44:42.388
  69. 00:57:15.599                             : en:00:57:15.599
  70. 01:12:03.528                             : en:01:12:03.528
  71. 01:24:21.932                             : en:01:24:21.932
  72. 01:40:23.517                             : en:01:40:23.517
  73. 01:46:41.729                             : en:01:46:41.729
  74. 01:51:31.268                             : en:01:51:31.268
复制代码


精彩剧照




蓝光高清网提示您 点击下方附件名称 马上开始下载



温馨提示:
本站资源优先使用迅雷下载,迅雷会员下载,速度基本可以跑满宽带
如果遇到无资源或者版权问题无法下载,推荐使用115网盘离线下载(点击查看115网盘离线下载教程


  • 该资源需要您回复以后 刷新网页进行下载操作

  • 1、Yakuza.Apocalypse.2015.JAPANESE.1080p.BluRay.x264-iKiW.torrent 55KB 已下载 0 次

加入蓝光高清网VIP会员  无限制下载本站所有资源---点此加入

资源下载、资源播放、字幕使用、无法下载等常见问题---点这里

回复

使用道具 举报

精彩评论22

chioptical 发表于 2020-1-14 12:37:40 | 显示全部楼层
不错不错,楼主您辛苦了。。。

加入蓝光高清网VIP会员  无限制下载本站所有资源---点此加入

资源下载、资源播放、字幕使用、无法下载等常见问题---点这里

回复

使用道具 举报

hawk13 发表于 2020-1-14 13:34:14 | 显示全部楼层
不管怎么说就是支持,感谢版主的无私付出

加入蓝光高清网VIP会员  无限制下载本站所有资源---点此加入

资源下载、资源播放、字幕使用、无法下载等常见问题---点这里

回复

使用道具 举报

yangnian01 发表于 2020-1-14 14:14:52 | 显示全部楼层
这个帖子不回对不起自己!我想我是一天也不能离开蓝光高清网了

加入蓝光高清网VIP会员  无限制下载本站所有资源---点此加入

资源下载、资源播放、字幕使用、无法下载等常见问题---点这里

回复

使用道具 举报

omkaecd 发表于 2020-1-14 14:19:55 | 显示全部楼层
sssssssssssssssssss

加入蓝光高清网VIP会员  无限制下载本站所有资源---点此加入

资源下载、资源播放、字幕使用、无法下载等常见问题---点这里

回复

使用道具 举报

SROCKY 发表于 2020-1-14 14:25:00 | 显示全部楼层
路过,学习下

加入蓝光高清网VIP会员  无限制下载本站所有资源---点此加入

资源下载、资源播放、字幕使用、无法下载等常见问题---点这里

回复

使用道具 举报

ShKyTLpZ 发表于 2020-1-14 15:15:50 | 显示全部楼层
相当不错,感谢无私分享精神!

加入蓝光高清网VIP会员  无限制下载本站所有资源---点此加入

资源下载、资源播放、字幕使用、无法下载等常见问题---点这里

回复

使用道具 举报

wangji5204 发表于 2020-1-14 15:30:59 | 显示全部楼层
帮帮顶顶!!

加入蓝光高清网VIP会员  无限制下载本站所有资源---点此加入

资源下载、资源播放、字幕使用、无法下载等常见问题---点这里

回复

使用道具 举报

小路VIP 发表于 2020-1-14 16:32:04 | 显示全部楼层
好电影 谢谢楼主分享

加入蓝光高清网VIP会员  无限制下载本站所有资源---点此加入

资源下载、资源播放、字幕使用、无法下载等常见问题---点这里

回复

使用道具 举报

market3 发表于 2020-1-14 16:47:29 | 显示全部楼层
下载来看看

加入蓝光高清网VIP会员  无限制下载本站所有资源---点此加入

资源下载、资源播放、字幕使用、无法下载等常见问题---点这里

回复

使用道具 举报

懒得打字嘛,点击右侧快捷回复
高级模式
B Color Image Link Quote Code Smilies 上传

本版积分规则

关注0

粉丝0

帖子71945

发布主题
最新电影 论坛
本期活动
联系我们
点击这里联系客服

服务时间:
周一到周日8:00-23:30

  • 打开微信扫一扫
    关注公众号

  • 手机QQ扫一扫
    添加客服

Archiver手机版蓝光高清网 ( 渝ICP备18006373号-2 )|网站地图

Powered by Discuz! X3.4  © 2001-2013 Comsenz Inc.