[喜剧] 东京暴族 Tokyo.Tribe.2014.1080p.BluRay.x264-SPLiTSViLLE 7.94GB

[复制链接]
蓝鸟 发表于 2020-1-14 10:57:41 | 显示全部楼层 |阅读模式 打印 上一主题 下一主题

东京暴族 Tokyo.Tribe.2014.1080p.BluRay.x264-SPLiTSViLLE 7.94GB

东京暴族 Tokyo.Tribe.2014.1080p.BluRay.x264-SPLiTSViLLE 7.94GB


译  名 东京暴族 / トーキョー?トライブ / 东京暴走族
片  名 Tokyo Tribe
年  代 2014
产  地 日本
类  别 喜剧 / 动作 / 歌舞
语  言 日语
上映日期 2014-08-30(日本)
IMDb评分  6.5/10 from 2855 users
IMDb链接  https://www.imdb.com/title/tt2808986
豆瓣评分 5.9/10 from 3238 users
豆瓣链接 https://movie.douban.com/subject/23010202/
片  长 116分钟
导  演 园子温 Shion Sono
编  剧 园子温 Shion Sono / 井上三太
主  演 铃木亮平 Ryohei Suzuki
       海 YOUNG DAIS
       清野菜名 Nana Seino
       大东骏介 Shunsuke Daito
       石田卓也 Takuya Ishida
       市川由衣 Yui Ichikawa
       Bernard Ackah
       Joey Beni
       Arata Matsuura
       Y?ki Ishii
       佐佐木心音 Kokone Sasaki
       中野英雄 Hideo Nakano
       大方斐纱子 Hisako Ohkata
       山本亨 Akira Yamamoto
       山口祥行 Yoshiyuki Yamaguchi
       北村昭博  Akihiro Kitamura
       高山善广 Yoshihiro Takayama
       深水元基 Motoki Fukami
       片山瞳 Hitomi Katayama
       屋敷纮子 Hiroko Yashiki
       矢吹春奈 Haruna Yabuki
       三田真央 Mao Mita
       横山美雪 Miyuki Yokoyama
       泉泽祐希 Yuki Izumisawa
       叶美香 Mika Kano
       中川翔子 Sh?ko Nakagawa
       绪方义博 Denden
       平冈亚希 Aki Hiraoka
       洼冢洋介 Y?suke Kubozuka
       佐藤隆太 Ry?ta Sat?
       染谷将太 Sh?ta Sometani
       竹内力 Riki Takeuchi


标  签 日本 | 园子温 | 日本电影 | 2014 | 漫画改编 | 动作 | 園子温 | 染谷将太

简  介  

  《东京暴族》改编自井上三太累计发行超过250万册的同名漫画,故事以近未来的东京为背景舞台,描述了暴走族激烈纷争的故事。崇尚暴力的年轻人们分帮拉派,各据山头,为了争夺地盘每天都上演血光四溅的全武行。不过他们彼此实力均衡,谁也无法将对方消灭,互相较劲的同时又维持着微妙而危 险的平衡。直到某天,帮派间的平衡被打破了……

获奖情况  

  第9届亚洲电影大奖(2015)
  最佳原创音乐(提名)


该资源信息参数
  1. Video
  2. ID                                       : 1
  3. Format                                   : AVC
  4. Format/Info                              : Advanced Video Codec
  5. Format profile                           : High@L4
  6. Format settings                          : CABAC / 5 Ref Frames
  7. Format settings, CABAC                   : Yes
  8. Format settings, Reference frames        : 5 frames
  9. Codec ID                                 : V_MPEG4/ISO/AVC
  10. Duration                                 : 1 h 56 min
  11. Bit rate                                 : 8 263 kb/s
  12. Width                                    : 1 920 pixels
  13. Height                                   : 800 pixels
  14. Display aspect ratio                     : 2.40:1
  15. Frame rate mode                          : Constant
  16. Frame rate                               : 23.976 (24000/1001) FPS
  17. Original frame rate                      : 23.976 (23976/1000) FPS
  18. Color space                              : YUV
  19. Chroma subsampling                       : 4:2:0
  20. Bit depth                                : 8 bits
  21. Scan type                                : Progressive
  22. Bits/(Pixel*Frame)                       : 0.224
  23. Stream size                              : 6.71 GiB (85%)
  24. Writing library                          : x264 core 146 r2538 121396c
  25. Encoding settings                        : cabac=1 / ref=5 / deblock=1:0:0 / analyse=0x3:0x133 / me=umh / subme=7 / psy=1 / psy_rd=1.00:0.00 / mixed_ref=1 / me_range=16 / chroma_me=1 / trellis=1 / 8x8dct=1 / cqm=0 / deadzone=21,11 / fast_pskip=0 / chroma_qp_offset=-2 / threads=12 / lookahead_threads=2 / sliced_threads=0 / nr=0 / decimate=1 / interlaced=0 / bluray_compat=0 / constrained_intra=0 / bframes=3 / b_pyramid=2 / b_adapt=2 / b_bias=0 / direct=3 / weightb=1 / open_gop=0 / weightp=2 / keyint=250 / keyint_min=23 / scenecut=40 / intra_refresh=0 / rc_lookahead=50 / rc=2pass / mbtree=1 / bitrate=8263 / ratetol=1.0 / qcomp=0.60 / qpmin=0 / qpmax=69 / qpstep=4 / cplxblur=20.0 / qblur=0.5 / ip_ratio=1.40 / aq=1:1.00
  26. Language                                 : English
  27. Default                                  : Yes
  28. Forced                                   : No

  29. Audio
  30. ID                                       : 2
  31. Format                                   : DTS
  32. Format/Info                              : Digital Theater Systems
  33. Codec ID                                 : A_DTS
  34. Duration                                 : 1 h 56 min
  35. Bit rate mode                            : Constant
  36. Bit rate                                 : 1 509 kb/s
  37. Channel(s)                               : 6 channels
  38. Channel layout                           : C L R Ls Rs LFE
  39. Sampling rate                            : 48.0 kHz
  40. Frame rate                               : 93.750 FPS (512 SPF)
  41. Bit depth                                : 24 bits
  42. Compression mode                         : Lossy
  43. Stream size                              : 1.23 GiB (15%)
  44. Language                                 : Japanese
  45. Default                                  : Yes
  46. Forced                                   : No

  47. Text
  48. ID                                       : 3
  49. Format                                   : UTF-8
  50. Codec ID                                 : S_TEXT/UTF8
  51. Codec ID/Info                            : UTF-8 Plain Text
  52. Duration                                 : 1 h 55 min
  53. Bit rate                                 : 39 b/s
  54. Count of elements                        : 1373
  55. Stream size                              : 33.3 KiB (0%)
  56. Language                                 : English
  57. Default                                  : Yes
  58. Forced                                   : No
复制代码


精彩剧照

东京暴族 Tokyo.Tribe.2014.1080p.BluRay.x264-SPLiTSViLLE 7.94GB

东京暴族 Tokyo.Tribe.2014.1080p.BluRay.x264-SPLiTSViLLE 7.94GB

东京暴族 Tokyo.Tribe.2014.1080p.BluRay.x264-SPLiTSViLLE 7.94GB

东京暴族 Tokyo.Tribe.2014.1080p.BluRay.x264-SPLiTSViLLE 7.94GB

东京暴族 Tokyo.Tribe.2014.1080p.BluRay.x264-SPLiTSViLLE 7.94GB

东京暴族 Tokyo.Tribe.2014.1080p.BluRay.x264-SPLiTSViLLE 7.94GB



蓝光高清网提示您 点击下方附件名称 马上开始下载

Tokyo.Tribe.2014.1080p.BluRay.x264-SPLiTSViLLE.torrent 
         (40.19 KB    阅读权限: 0)
加入蓝光高清网VIP会员  无限制下载本站所有资源---点这里

资源下载、资源播放、字幕使用、无法下载等常见问题---点这里
回复

使用道具 举报

精彩评论31

qhy3719 发表于 2020-1-14 11:00:10 | 显示全部楼层
支持一下
回复

使用道具 举报

kQsBRFWD 发表于 2020-1-14 11:10:29 | 显示全部楼层
真是 收益 匪浅
回复

使用道具 举报

361697535 发表于 2020-1-14 12:22:12 | 显示全部楼层
不错不错,楼主您辛苦了。。。
回复

使用道具 举报

Freebsdangel 发表于 2020-1-14 14:55:30 | 显示全部楼层
相当不错,感谢无私分享精神!
回复

使用道具 举报

特别喜欢 发表于 2020-1-14 15:36:00 | 显示全部楼层
lkjlsdfadfsfasasdfasfa
回复

使用道具 举报

集贤居 发表于 2020-1-14 15:56:20 | 显示全部楼层
帮帮顶顶!!
回复

使用道具 举报

xfc99 发表于 2020-1-14 16:11:44 | 显示全部楼层
找了好久 终于找到了  谢谢分享
回复

使用道具 举报

brokenjade 发表于 2020-1-14 16:42:25 | 显示全部楼层
终于找到了  谢谢分享
回复

使用道具 举报

qaqaqa 发表于 2020-1-14 16:47:29 | 显示全部楼层
sfweoeroiqwetasd!
回复

使用道具 举报

您需要登录后才可以回帖 登录 | 立即注册

本版积分规则

关注0

粉丝1

帖子86513

发布主题
最新电影 论坛
本期活动
联系我们
点击这里联系客服

服务时间:
周一到周日8:00-23:30

  • 打开微信扫一扫
    关注公众号

  • 手机QQ扫一扫
    添加客服

手机版蓝光高清网 |网站地图

Powered by Discuz! X3.4 Licensed  © 2001-2013 Comsenz Inc.