[剧情] 西野的恋爱与冒险 The.Tale.of.Nishino.2014.JAPANESE.1080p.BluRay.x264-iKiW 10.94GB

[复制链接]
蓝鸟 发表于 2020-1-14 10:58:45 | 显示全部楼层 |阅读模式 打印 上一主题 下一主题

西野的恋爱与冒险 The.Tale.of.Nishino.2014.JAPANESE.1080p.BluRay.x264-iKiW 10.94GB

西野的恋爱与冒险 The.Tale.of.Nishino.2014.JAPANESE.1080p.BluRay.x264-iKiW 10.94GB


译  名 西野的恋爱与冒险 / The Tale of Nishino / 西野幸彦的恋爱与冒险
片  名 ニシノユキヒコの恋と冒険
年  代 2014
产  地 日本
类  别 剧情
语  言 日语
上映日期 2014-02-08(日本)
IMDb评分  6.4/10 from 92 users
IMDb链接  https://www.imdb.com/title/tt3090310
豆瓣评分 6.5/10 from 1993 users
豆瓣链接 https://movie.douban.com/subject/24875659/
片  长 121分钟
导  演 井口奈己 Nami Iguchi
编  剧 井口奈己 Nami Iguchi / 川上弘美 Hiromi Kawakami
主  演 竹野内丰 Yutaka Takenouchi
       尾野真千子 Machiko Ono
       成海璃子 Riko Narumi
       木村文乃 Fumino Kimura
       本田翼 Tsubasa Honda
       麻生久美子 Kumiko Aso
       阿川佐和子 Sawako Agawa
       中村友梨香 Yurika Nakamura


标  签 日本 | 爱情 | 2014 | 文艺 | 剧情 | 小说改编 | 青春 | 治愈

简  介  

  高中女孩小南(中村百合香 饰),在家中意外看到了十年前曾和母亲夏美(麻生久美子 饰)交往过的迷人叔叔西野幸彦(竹野内丰 饰)。西野不久前意外去世,他曾说过要和夏美死后相见。起初受到惊吓,不过小南慢慢习惯了西野的存在,并随之一同来到西野的葬礼现场。秀美庄园中,哀而不伤的乐曲响起,身着黑色丧服的女性鱼贯而入,她们都是曾和西野交往过的女子。小南偶然认识了家庭主妇小百合(阿川佐和子 饰),并听这位太太讲起了西野和真奈美(尾野真千子 饰)、幸乃子(本田翼 饰)、昴(成海璃子 饰)及阿玉(木村文乃 饰)等女孩同时交往的孟浪往事。看似放荡不羁的西野,他有着自己追逐却无法得到的东西……
  本片根据第115届芥川奖获得者川上弘美的同名小说改编。


该资源信息参数
  1. Video
  2. ID                                       : 1
  3. Format                                   : AVC
  4. Format/Info                              : Advanced Video Codec
  5. Format profile                           : High@L4
  6. Format settings                          : CABAC / 4 Ref Frames
  7. Format settings, CABAC                   : Yes
  8. Format settings, Reference frames        : 4 frames
  9. Codec ID                                 : V_MPEG4/ISO/AVC
  10. Duration                                 : 2 h 1 min
  11. Bit rate                                 : 11.4 Mb/s
  12. Width                                    : 1 920 pixels
  13. Height                                   : 1 036 pixels
  14. Display aspect ratio                     : 1.85:1
  15. Frame rate mode                          : Constant
  16. Frame rate                               : 23.976 (24000/1001) FPS
  17. Color space                              : YUV
  18. Chroma subsampling                       : 4:2:0
  19. Bit depth                                : 8 bits
  20. Scan type                                : Progressive
  21. Bits/(Pixel*Frame)                       : 0.238
  22. Stream size                              : 9.65 GiB (88%)
  23. Writing library                          : x264 core 129 r2245+704+36 8e61944 tMod+MixAQ [High@L4:2:0 X86_64]
  24. Encoding settings                        : cabac=1 / ref=4 / deblock=1:-3:-3 / analyse=0x3:0x133 / me=umh / subme=11 / psy=1 / fade_compensate=0.00 / psy_rd=1.05:0.10 / mixed_ref=1 / me_range=64 / chroma_me=1 / trellis=2 / 8x8dct=1 / cqm=0 / deadzone=21,11 / fast_pskip=0 / chroma_qp_offset=-3 / threads=18 / lookahead_threads=3 / sliced_threads=0 / nr=0 / decimate=0 / interlaced=0 / bluray_compat=0 / constrained_intra=0 / fgo=0 / bframes=10 / b_pyramid=2 / b_adapt=2 / b_bias=0 / direct=3 / weightb=1 / open_gop=0 / weightp=2 / keyint=250 / keyint_min=23 / scenecut=40 / intra_refresh=0 / rc_lookahead=80 / rc=2pass / mbtree=1 / bitrate=11368 / ratetol=1.0 / qcomp=0.70 / qpmin=0 / qpmax=69 / qpstep=4 / cplxblur=20.0 / qblur=0.5 / ip_ratio=1.40 / aq=3 / aq-strength=0.90 / aq-sensitivity=10.00 / aq-ifactor=1.00 / aq-pfactor=1.00 / aq-bfactor=1.00 / aq2=0
  25. Language                                 : Japanese
  26. Default                                  : Yes
  27. Forced                                   : No

  28. Audio
  29. ID                                       : 2
  30. Format                                   : DTS
  31. Format/Info                              : Digital Theater Systems
  32. Codec ID                                 : A_DTS
  33. Duration                                 : 2 h 1 min
  34. Bit rate mode                            : Constant
  35. Bit rate                                 : 1 509 kb/s
  36. Channel(s)                               : 6 channels
  37. Channel layout                           : C L R Ls Rs LFE
  38. Sampling rate                            : 48.0 kHz
  39. Frame rate                               : 93.750 FPS (512 SPF)
  40. Bit depth                                : 24 bits
  41. Compression mode                         : Lossy
  42. Stream size                              : 1.28 GiB (12%)
  43. Language                                 : Japanese
  44. Default                                  : Yes
  45. Forced                                   : No

  46. Text
  47. ID                                       : 3
  48. Format                                   : UTF-8
  49. Codec ID                                 : S_TEXT/UTF8
  50. Codec ID/Info                            : UTF-8 Plain Text
  51. Duration                                 : 1 h 55 min
  52. Bit rate                                 : 23 b/s
  53. Count of elements                        : 911
  54. Stream size                              : 19.7 KiB (0%)
  55. Language                                 : English
  56. Default                                  : Yes
  57. Forced                                   : No

  58. Menu
  59. 00:00:00.000                             : en:00:00:00.000
  60. 00:04:37.110                             : en:00:04:37.110
  61. 00:20:55.254                             : en:00:20:55.254
  62. 00:30:29.202                             : en:00:30:29.202
  63. 00:39:23.152                             : en:00:39:23.152
  64. 00:45:33.814                             : en:00:45:33.814
  65. 00:50:55.844                             : en:00:50:55.844
  66. 01:00:25.663                             : en:01:00:25.663
  67. 01:09:13.440                             : en:01:09:13.440
  68. 01:13:59.226                             : en:01:13:59.226
  69. 01:25:02.472                             : en:01:25:02.472
  70. 01:30:51.863                             : en:01:30:51.863
  71. 01:40:11.964                             : en:01:40:11.964
  72. 01:50:46.890                             : en:01:50:46.890
  73. 01:56:28.773                             : en:01:56:28.773
  74. 02:01:34.287                             : en:02:01:34.287
复制代码


精彩剧照

西野的恋爱与冒险 The.Tale.of.Nishino.2014.JAPANESE.1080p.BluRay.x264-iKiW 10.94GB

西野的恋爱与冒险 The.Tale.of.Nishino.2014.JAPANESE.1080p.BluRay.x264-iKiW 10.94GB

西野的恋爱与冒险 The.Tale.of.Nishino.2014.JAPANESE.1080p.BluRay.x264-iKiW 10.94GB

西野的恋爱与冒险 The.Tale.of.Nishino.2014.JAPANESE.1080p.BluRay.x264-iKiW 10.94GB

西野的恋爱与冒险 The.Tale.of.Nishino.2014.JAPANESE.1080p.BluRay.x264-iKiW 10.94GB

西野的恋爱与冒险 The.Tale.of.Nishino.2014.JAPANESE.1080p.BluRay.x264-iKiW 10.94GB



蓝光高清网提示您 点击下方附件名称 马上开始下载

The.Tale.of.Nishino.2014.JAPANESE.1080p.BluRay.x264-iKiW.torrent 
         (55.24 KB    阅读权限: 0)
加入蓝光高清网VIP会员  无限制下载本站所有资源---点这里

资源下载、资源播放、字幕使用、无法下载等常见问题---点这里
回复

使用道具 举报

精彩评论19

WJ1127H 发表于 2020-1-14 13:14:05 | 显示全部楼层
找了好久 终于找到了  谢谢分享
回复

使用道具 举报

kimoz 发表于 2020-1-14 14:09:39 | 显示全部楼层
谢谢楼主分享
回复

使用道具 举报

sky.913 发表于 2020-1-14 14:40:09 | 显示全部楼层
下载来看看
回复

使用道具 举报

ming-yih 发表于 2020-1-14 14:50:16 | 显示全部楼层
好电影 谢谢楼主分享
回复

使用道具 举报

uuiuu 发表于 2020-1-14 16:21:55 | 显示全部楼层
谢谢分享
回复

使用道具 举报

hackboot 发表于 2020-1-14 16:57:51 | 显示全部楼层
楼主,我太崇拜你了!
回复

使用道具 举报

eruobing02 发表于 2020-1-14 17:13:15 | 显示全部楼层
收藏了  谢谢
回复

使用道具 举报

lijianhuaq 发表于 2020-1-14 20:23:01 | 显示全部楼层
楼主,我太崇拜你了!
回复

使用道具 举报

daidaideai 发表于 2020-1-14 21:44:52 | 显示全部楼层
好好 学习了 确实不错
回复

使用道具 举报

您需要登录后才可以回帖 登录 | 立即注册

本版积分规则

关注0

粉丝1

帖子86440

发布主题
最新电影 论坛
本期活动
联系我们
点击这里联系客服

服务时间:
周一到周日8:00-23:30

  • 打开微信扫一扫
    关注公众号

  • 手机QQ扫一扫
    添加客服

手机版蓝光高清网 |网站地图

Powered by Discuz! X3.4 Licensed  © 2001-2013 Comsenz Inc.