[恐怖片] 变种女狼归来 Ginger.Snaps.Back.The.Beginning.2004.1080p.BluRay.REMUX.AVC.DTS-HD.MA.5.1-FGT 13.38GB

[复制链接]
蓝鸟VIP会员 永久VIP 发表于 2020-1-14 11:02:38 | 显示全部楼层 |阅读模式 打印 上一主题 下一主题

马上注册,轻松下载,海量资源,让你轻松玩转社区。

您需要 登录 才可以下载或查看,没有帐号?立即注册

x

变种女狼归来 Ginger.Snaps.Back.The.Beginning.2004.1080p.BluRay.REMUX.AVC.DTS-HD.MA.5.1-FGT 13.38GB ...

变种女狼归来 Ginger.Snaps.Back.The.Beginning.2004.1080p.BluRay.REMUX.AVC.DTS-HD.MA.5.1-FGT 13.38GB ...


译  名 变种女狼归来
片  名 Ginger Snaps Back: The Beginning
年  代 2004
产  地 加拿大
类  别 恐怖 / 奇幻
语  言 英语
上映日期 2004-08-17
IMDb评分  5.9/10 from 9642 users
IMDb链接  https://www.imdb.com/title/tt0365265
豆瓣评分 5.9/10 from 275 users
豆瓣链接 https://movie.douban.com/subject/1422310/
片  长 94 分钟
导  演 Grant Harvey
编  剧 Christina Ray / Stephen Massicotte
主  演 Katharine Isabelle
       Emily Perkins
       Nathaniel Arcand


标  签 狼人 | 恐怖 | 加拿大 | 惊悚 | 2004 | 我看过的恐怖电影 | 加拿大电影 | 2000s

简  介  

  金吉(凯瑟琳·伊莎贝尔 Katharine Isabelle 饰)和布里吉塔(艾米莉·帕金斯 Emily Perkins 饰)是情同手足的亲姐妹,两人之间的感情非常的深厚。一天,她们刚刚结束了一场疯狂的派对,走在深夜的路上准备回家,在这个节骨眼上,一群半人半兽的怪物突然出现袭击了姐妹两人,金吉身受重伤。
  可是,让布里吉塔没有想到的是,金吉身上的伤口很快就痊愈了,不仅如此,她的身上开始长出粗硬的毛发,本来温顺的性格也开始慢慢变得嗜血而残暴。为了帮助痛苦的金吉,布里吉塔向生物学家森(阿德里安·多瓦尔 Adrien Dorval 饰)求助,森震惊的发现,一些恐怖的变化正在发生在金吉的身上。


该资源信息参数
  1. Video
  2. ID                                       : 1
  3. Format                                   : AVC
  4. Format/Info                              : Advanced Video Codec
  5. Format profile                           : High@L4
  6. Format settings                          : CABAC / 3 Ref Frames
  7. Format settings, CABAC                   : Yes
  8. Format settings, Reference frames        : 3 frames
  9. Codec ID                                 : V_MPEG4/ISO/AVC
  10. Duration                                 : 1 h 34 min
  11. Bit rate mode                            : Variable
  12. Bit rate                                 : 18.0 Mb/s
  13. Maximum bit rate                         : 36.0 Mb/s
  14. Width                                    : 1 920 pixels
  15. Height                                   : 1 080 pixels
  16. Display aspect ratio                     : 16:9
  17. Frame rate mode                          : Constant
  18. Frame rate                               : 23.976 (24000/1001) FPS
  19. Color space                              : YUV
  20. Chroma subsampling                       : 4:2:0
  21. Bit depth                                : 8 bits
  22. Scan type                                : Progressive
  23. Bits/(Pixel*Frame)                       : 0.362
  24. Stream size                              : 11.7 GiB (87%)
  25. Title                                    : Ginger.Snaps.Back.The.Beginning.2004.1080p.BluRay.REMUX.AVC.DTS-HD.MA.5.1-FGT
  26. Writing library                          : x264 core 148 r2643 5c65704
  27. Encoding settings                        : cabac=1 / ref=1 / deblock=1:-1:-1 / analyse=0x1:0 / me=dia / subme=2 / psy=1 / psy_rd=1.00:0.15 / mixed_ref=0 / me_range=16 / chroma_me=1 / trellis=0 / 8x8dct=0 / cqm=0 / deadzone=21,11 / fast_pskip=1 / chroma_qp_offset=0 / threads=16 / lookahead_threads=8 / sliced_threads=0 / slices=4 / nr=0 / decimate=1 / interlaced=0 / bluray_compat=1 / constrained_intra=0 / bframes=3 / b_pyramid=1 / b_adapt=2 / b_bias=0 / direct=3 / weightb=1 / open_gop=0 / weightp=1 / keyint=24 / keyint_min=1 / scenecut=40 / intra_refresh=0 / rc_lookahead=24 / rc=abr / mbtree=1 / bitrate=18000 / ratetol=1.0 / qcomp=0.60 / qpmin=0 / qpmax=69 / qpstep=4 / vbv_maxrate=36000 / vbv_bufsize=30000 / nal_hrd=vbr / filler=0 / ip_ratio=1.40 / aq=1:1.00
  28. Language                                 : English
  29. Default                                  : No
  30. Forced                                   : No
  31. Color range                              : Limited
  32. Color primaries                          : BT.709
  33. Transfer characteristics                 : BT.709
  34. Matrix coefficients                      : BT.709

  35. Audio #1
  36. ID                                       : 2
  37. Format                                   : DTS XLL
  38. Format/Info                              : Digital Theater Systems
  39. Commercial name                          : DTS-HD Master Audio
  40. Codec ID                                 : A_DTS
  41. Duration                                 : 1 h 34 min
  42. Bit rate mode                            : Variable
  43. Bit rate                                 : 1 898 kb/s
  44. Channel(s)                               : 6 channels
  45. Channel layout                           : C L R Ls Rs LFE
  46. Sampling rate                            : 48.0 kHz
  47. Frame rate                               : 93.750 FPS (512 SPF)
  48. Bit depth                                : 16 bits
  49. Compression mode                         : Lossless
  50. Stream size                              : 1.26 GiB (9%)
  51. Title                                    : Ginger.Snaps.Back.The.Beginning.2004.1080p.BluRay.REMUX.AVC.DTS-HD.MA.5.1-FGT
  52. Language                                 : English
  53. Default                                  : Yes
  54. Forced                                   : No

  55. Audio #2
  56. ID                                       : 3
  57. Format                                   : AC-3
  58. Format/Info                              : Audio Coding 3
  59. Commercial name                          : Dolby Digital
  60. Codec ID                                 : A_AC3
  61. Duration                                 : 1 h 34 min
  62. Bit rate mode                            : Constant
  63. Bit rate                                 : 640 kb/s
  64. Channel(s)                               : 2 channels
  65. Channel layout                           : L R
  66. Sampling rate                            : 48.0 kHz
  67. Frame rate                               : 31.250 FPS (1536 SPF)
  68. Bit depth                                : 16 bits
  69. Compression mode                         : Lossy
  70. Stream size                              : 434 MiB (3%)
  71. Title                                    : Ginger.Snaps.Back.The.Beginning.2004.1080p.BluRay.REMUX.AVC.DTS-HD.MA.5.1-FGT
  72. Language                                 : English
  73. Service kind                             : Complete Main
  74. Default                                  : No
  75. Forced                                   : No

  76. Text
  77. ID                                       : 4
  78. Format                                   : PGS
  79. Muxing mode                              : zlib
  80. Codec ID                                 : S_HDMV/PGS
  81. Codec ID/Info                            : Picture based subtitle format used on BDs/HD-DVDs
  82. Duration                                 : 1 h 30 min
  83. Bit rate                                 : 16.5 kb/s
  84. Count of elements                        : 1571
  85. Stream size                              : 10.6 MiB (0%)
  86. Title                                    : English-PGS
  87. Language                                 : English
  88. Default                                  : Yes
  89. Forced                                   : No

  90. Menu
  91. 00:00:00.000                             : en:Chapter 01
  92. 00:03:26.623                             : en:Chapter 02
  93. 00:16:15.975                             : en:Chapter 03
  94. 00:24:29.759                             : en:Chapter 04
  95. 00:31:43.234                             : en:Chapter 05
  96. 00:40:16.288                             : en:Chapter 06
  97. 00:45:43.407                             : en:Chapter 07
  98. 00:55:16.688                             : en:Chapter 08
  99. 01:02:49.307                             : en:Chapter 09
  100. 01:11:28.534                             : en:Chapter 10
  101. 01:16:07.771                             : en:Chapter 11
  102. 01:29:39.665                             : en:Chapter 12
复制代码


精彩剧照

变种女狼归来 Ginger.Snaps.Back.The.Beginning.2004.1080p.BluRay.REMUX.AVC.DTS-HD.MA.5.1-FGT 13.38GB ...

变种女狼归来 Ginger.Snaps.Back.The.Beginning.2004.1080p.BluRay.REMUX.AVC.DTS-HD.MA.5.1-FGT 13.38GB ...

变种女狼归来 Ginger.Snaps.Back.The.Beginning.2004.1080p.BluRay.REMUX.AVC.DTS-HD.MA.5.1-FGT 13.38GB ...

变种女狼归来 Ginger.Snaps.Back.The.Beginning.2004.1080p.BluRay.REMUX.AVC.DTS-HD.MA.5.1-FGT 13.38GB ...

变种女狼归来 Ginger.Snaps.Back.The.Beginning.2004.1080p.BluRay.REMUX.AVC.DTS-HD.MA.5.1-FGT 13.38GB ...

变种女狼归来 Ginger.Snaps.Back.The.Beginning.2004.1080p.BluRay.REMUX.AVC.DTS-HD.MA.5.1-FGT 13.38GB ...



蓝光高清网提示您 点击下方附件名称 马上开始下载

Ginger.Snaps.Back.The.Beginning.2004.1080p.BluRay.REMUX.AVC.DTS-HD.MA.5.1-FGT.torrent (67.51 KB, 下载次数: 0)

加入蓝光高清网VIP会员  无限制下载本站所有资源---点此加入

资源下载、资源播放、字幕使用、无法下载等常见问题---点这里

回复

使用道具 举报

精彩评论25

run7777run 发表于 2020-1-14 12:01:48 | 显示全部楼层
谢谢  下载了  3Q

加入蓝光高清网VIP会员  无限制下载本站所有资源---点此加入

资源下载、资源播放、字幕使用、无法下载等常见问题---点这里

回复

使用道具 举报

fuck321321 发表于 2020-1-14 12:06:50 | 显示全部楼层
变种女狼归来 Ginger.Snaps.Back.The.Beginning.2004.1080p.BluRay.REMUX.AVC.DTS-HD.MA.5.1-FGT 13.38GB

加入蓝光高清网VIP会员  无限制下载本站所有资源---点此加入

资源下载、资源播放、字幕使用、无法下载等常见问题---点这里

回复

使用道具 举报

6868263 发表于 2020-1-14 12:11:58 | 显示全部楼层
下载试一试

加入蓝光高清网VIP会员  无限制下载本站所有资源---点此加入

资源下载、资源播放、字幕使用、无法下载等常见问题---点这里

回复

使用道具 举报

luotongjx 发表于 2020-1-14 12:58:10 | 显示全部楼层
这个帖子不回对不起自己!我想我是一天也不能离开蓝光高清网了

加入蓝光高清网VIP会员  无限制下载本站所有资源---点此加入

资源下载、资源播放、字幕使用、无法下载等常见问题---点这里

回复

使用道具 举报

matrix_carney 发表于 2020-1-14 13:39:17 | 显示全部楼层
lkjlsdfadfsfasasdfasfa

加入蓝光高清网VIP会员  无限制下载本站所有资源---点此加入

资源下载、资源播放、字幕使用、无法下载等常见问题---点这里

回复

使用道具 举报

seeksun1 发表于 2020-1-14 13:54:29 | 显示全部楼层
还是蓝光看起带劲 音效爆棚

加入蓝光高清网VIP会员  无限制下载本站所有资源---点此加入

资源下载、资源播放、字幕使用、无法下载等常见问题---点这里

回复

使用道具 举报

361697535 发表于 2020-1-14 14:35:08 | 显示全部楼层
下载来看看

加入蓝光高清网VIP会员  无限制下载本站所有资源---点此加入

资源下载、资源播放、字幕使用、无法下载等常见问题---点这里

回复

使用道具 举报

lovezz 发表于 2020-1-14 15:46:09 | 显示全部楼层
真是 收益 匪浅

加入蓝光高清网VIP会员  无限制下载本站所有资源---点此加入

资源下载、资源播放、字幕使用、无法下载等常见问题---点这里

回复

使用道具 举报

jasonsure 发表于 2020-1-14 16:26:59 | 显示全部楼层
sssssssssssssssssss

加入蓝光高清网VIP会员  无限制下载本站所有资源---点此加入

资源下载、资源播放、字幕使用、无法下载等常见问题---点这里

回复

使用道具 举报

懒得打字嘛,点击右侧快捷回复
您需要登录后才可以回帖 登录 | 立即注册

本版积分规则

关注0

粉丝0

帖子72186

发布主题
最新电影 论坛
本期活动
联系我们
点击这里联系客服

服务时间:
周一到周日8:00-23:30

  • 打开微信扫一扫
    关注公众号

  • 手机QQ扫一扫
    添加客服

Archiver手机版蓝光高清网 ( 渝ICP备18006373号-2 )|网站地图

Powered by Discuz! X3.4  © 2001-2013 Comsenz Inc.