[恐怖片] 养鬼屋/小屋 The.Shed.2019.1080p.BluRay.REMUX.AVC.DTS-HD.MA.5.1-FGT 16.48GB

[复制链接]
蓝鸟 发表于 2020-1-14 11:03:39 | 显示全部楼层 |阅读模式 打印 上一主题 下一主题

养鬼屋/小屋 The.Shed.2019.1080p.BluRay.REMUX.AVC.DTS-HD.MA.5.1-FGT 16.48GB

养鬼屋/小屋 The.Shed.2019.1080p.BluRay.REMUX.AVC.DTS-HD.MA.5.1-FGT 16.48GB


译  名 养鬼屋 / 小屋
片  名 The Shed
年  代 2019
产  地 美国
类  别 恐怖
语  言 英语
上映日期 2019-11-15(美国)
IMDb评分  4.4/10 from 535 users
IMDb链接  https://www.imdb.com/title/tt8236366
豆瓣评分 0/10 from 0 users
豆瓣链接 https://movie.douban.com/subject/33427057/
导  演 Frank Sabatella
编  剧 Frank Sabatella
主  演 杰· 杰 ·沃伦 Jay Jay Warren
       Cody Kostro
       Sofia Happonen


标  签 美国 | 美国电影 | 恐怖 | 灵异

简  介  

  斯坦和他的朋友多默一直都在忍受欺凌,两人突然发现乡间小屋住着一个凶残的未知生物,看到怪物所造成的流血恐怖,斯坦所想的是摧毁它,而多默心里却产生了利用怪物完成报复的计划。。。


该资源信息参数
  1. Video
  2. ID                                       : 1
  3. Format                                   : AVC
  4. Format/Info                              : Advanced Video Codec
  5. Format profile                           : High@L4
  6. Format settings                          : CABAC / 4 Ref Frames
  7. Format settings, CABAC                   : Yes
  8. Format settings, Reference frames        : 4 frames
  9. Codec ID                                 : V_MPEG4/ISO/AVC
  10. Duration                                 : 1 h 37 min
  11. Bit rate mode                            : Variable
  12. Bit rate                                 : 20.8 Mb/s
  13. Maximum bit rate                         : 36.0 Mb/s
  14. Width                                    : 1 920 pixels
  15. Height                                   : 1 080 pixels
  16. Display aspect ratio                     : 16:9
  17. Frame rate mode                          : Constant
  18. Frame rate                               : 23.976 (24000/1001) FPS
  19. Color space                              : YUV
  20. Chroma subsampling                       : 4:2:0
  21. Bit depth                                : 8 bits
  22. Scan type                                : Progressive
  23. Bits/(Pixel*Frame)                       : 0.418
  24. Stream size                              : 14.1 GiB (86%)
  25. Title                                    : The.Shed.2019.1080p.BluRay.REMUX.AVC.DTS-HD.MA.5.1-FGT
  26. Language                                 : English
  27. Default                                  : No
  28. Forced                                   : No

  29. Audio
  30. ID                                       : 2
  31. Format                                   : DTS XLL
  32. Format/Info                              : Digital Theater Systems
  33. Commercial name                          : DTS-HD Master Audio
  34. Codec ID                                 : A_DTS
  35. Duration                                 : 1 h 37 min
  36. Bit rate mode                            : Variable
  37. Bit rate                                 : 3 472 kb/s
  38. Channel(s)                               : 6 channels
  39. Channel layout                           : C L R Ls Rs LFE
  40. Sampling rate                            : 48.0 kHz
  41. Frame rate                               : 93.750 FPS (512 SPF)
  42. Bit depth                                : 24 bits
  43. Compression mode                         : Lossless
  44. Stream size                              : 2.36 GiB (14%)
  45. Title                                    : The.Shed.2019.1080p.BluRay.REMUX.AVC.DTS-HD.MA.5.1-FGT
  46. Language                                 : English
  47. Default                                  : Yes
  48. Forced                                   : No

  49. Text #1
  50. ID                                       : 3
  51. Format                                   : UTF-8
  52. Codec ID                                 : S_TEXT/UTF8
  53. Codec ID/Info                            : UTF-8 Plain Text
  54. Duration                                 : 1 h 31 min
  55. Bit rate                                 : 42 b/s
  56. Count of elements                        : 1043
  57. Stream size                              : 28.7 KiB (0%)
  58. Title                                    : English-SRT
  59. Language                                 : English
  60. Default                                  : Yes
  61. Forced                                   : No

  62. Text #2
  63. ID                                       : 4
  64. Format                                   : PGS
  65. Muxing mode                              : zlib
  66. Codec ID                                 : S_HDMV/PGS
  67. Codec ID/Info                            : Picture based subtitle format used on BDs/HD-DVDs
  68. Duration                                 : 1 h 36 min
  69. Bit rate                                 : 20.5 kb/s
  70. Count of elements                        : 2560
  71. Stream size                              : 14.1 MiB (0%)
  72. Title                                    : English-PGS
  73. Language                                 : English
  74. Default                                  : No
  75. Forced                                   : No

  76. Text #3
  77. ID                                       : 5
  78. Format                                   : PGS
  79. Muxing mode                              : zlib
  80. Codec ID                                 : S_HDMV/PGS
  81. Codec ID/Info                            : Picture based subtitle format used on BDs/HD-DVDs
  82. Duration                                 : 1 h 29 min
  83. Bit rate                                 : 18.4 kb/s
  84. Count of elements                        : 1948
  85. Stream size                              : 11.8 MiB (0%)
  86. Title                                    : Spanish-PGS
  87. Language                                 : Spanish
  88. Default                                  : No
  89. Forced                                   : No

  90. Text #4
  91. ID                                       : 6
  92. Format                                   : PGS
  93. Muxing mode                              : zlib
  94. Codec ID                                 : S_HDMV/PGS
  95. Codec ID/Info                            : Picture based subtitle format used on BDs/HD-DVDs
  96. Duration                                 : 1 h 29 min
  97. Bit rate                                 : 17.6 kb/s
  98. Count of elements                        : 2014
  99. Stream size                              : 11.3 MiB (0%)
  100. Title                                    : French-PGS
  101. Language                                 : French
  102. Default                                  : No
  103. Forced                                   : No

  104. Menu
  105. 00:00:00.000                             : en:Chapter 01
  106. 00:16:02.169                             : en:Chapter 02
  107. 00:30:46.469                             : en:Chapter 03
  108. 00:45:17.214                             : en:Chapter 04
  109. 00:49:56.034                             : en:Chapter 05
  110. 01:07:58.074                             : en:Chapter 06
  111. 01:15:03.540                             : en:Chapter 07
  112. 01:33:27.977                             : en:Chapter 08
复制代码


精彩剧照

养鬼屋/小屋 The.Shed.2019.1080p.BluRay.REMUX.AVC.DTS-HD.MA.5.1-FGT 16.48GB

养鬼屋/小屋 The.Shed.2019.1080p.BluRay.REMUX.AVC.DTS-HD.MA.5.1-FGT 16.48GB

养鬼屋/小屋 The.Shed.2019.1080p.BluRay.REMUX.AVC.DTS-HD.MA.5.1-FGT 16.48GB

养鬼屋/小屋 The.Shed.2019.1080p.BluRay.REMUX.AVC.DTS-HD.MA.5.1-FGT 16.48GB

养鬼屋/小屋 The.Shed.2019.1080p.BluRay.REMUX.AVC.DTS-HD.MA.5.1-FGT 16.48GB

养鬼屋/小屋 The.Shed.2019.1080p.BluRay.REMUX.AVC.DTS-HD.MA.5.1-FGT 16.48GB



蓝光高清网提示您 点击下方附件名称 马上开始下载

The.Shed.2019.1080p.BluRay.REMUX.AVC.DTS-HD.MA.5.1-FGT.torrent 
         (82.93 KB    阅读权限: 0)
加入蓝光高清网VIP会员  无限制下载本站所有资源---点这里

资源下载、资源播放、字幕使用、无法下载等常见问题---点这里
回复

使用道具 举报

精彩评论18

gpdl 发表于 2020-1-14 12:48:05 | 显示全部楼层
真是 收益 匪浅
回复

使用道具 举报

anderson2006 发表于 2020-1-14 13:03:58 | 显示全部楼层
学习了,谢谢分享、、、
回复

使用道具 举报

xelab 发表于 2020-1-14 13:19:06 | 显示全部楼层
收藏了  谢谢
回复

使用道具 举报

←Iしovのyou 发表于 2020-1-14 15:00:43 | 显示全部楼层
谢谢分享
回复

使用道具 举报

leecho 发表于 2020-1-14 16:06:35 | 显示全部楼层
好网站 希望越来越好
回复

使用道具 举报

pxnOOplD 发表于 2020-1-14 16:47:29 | 显示全部楼层
不管怎么说就是支持,感谢版主的无私付出
回复

使用道具 举报

gtwfo 发表于 2020-1-14 20:02:42 | 显示全部楼层
学习了,谢谢分享、、、
回复

使用道具 举报

星情哲蔗 发表于 2020-1-14 21:24:15 | 显示全部楼层
真是 收益 匪浅
回复

使用道具 举报

yyy6680126 发表于 2020-1-14 22:05:39 | 显示全部楼层
这个帖子不回对不起自己!我想我是一天也不能离开蓝光高清网了
回复

使用道具 举报

您需要登录后才可以回帖 登录 | 立即注册

本版积分规则

关注0

粉丝1

帖子88153

发布主题
最新电影 论坛
本期活动
联系我们
点击这里联系客服

服务时间:
周一到周日8:00-23:30

  • 打开微信扫一扫
    关注公众号

  • 手机QQ扫一扫
    添加客服

手机版蓝光高清网 |网站地图

Powered by Discuz! X3.4 Licensed  © 2001-2013 Comsenz Inc.