[动画片] 亚当斯一家/爱登士家庭 The.Addams.Family.2019.1080p.BluRay.REMUX.AVC.DTS-HD.MA.7.1-FGT 22.32GB

[复制链接]
蓝鸟 发表于 2020-1-14 11:04:50 | 显示全部楼层 |阅读模式 打印 上一主题 下一主题

亚当斯一家/爱登士家庭 The.Addams.Family.2019.1080p.BluRay.REMUX.AVC.DTS-HD.MA.7.1-FGT 22.32GB ...

亚当斯一家/爱登士家庭 The.Addams.Family.2019.1080p.BluRay.REMUX.AVC.DTS-HD.MA.7.1-FGT 22.32GB ...


译  名 亚当斯一家 / 爱登士家庭(港) / 阿达一族
片  名 The Addams Family
年  代 2019
产  地 美国 / 英国 / 加拿大
类  别 喜剧 / 动画 / 家庭 / 奇幻
语  言 英语
上映日期 2019-10-11(美国)
IMDb评分  5.8/10 from 11808 users
IMDb链接  https://www.imdb.com/title/tt1620981
豆瓣评分 6.6/10 from 2585 users
豆瓣链接 https://movie.douban.com/subject/4811807/
片  长 87分钟
导  演 格雷格·蒂曼 Greg Tiernan / 康拉德·弗农 Conrad Vernon
编  剧 马特·利伯曼 Matt Lieberman / 查尔斯·亚当斯 Charles Addams / 帕米拉·帕特勒 Pamela Pettler
主  演 查理兹·塞隆 Charlize Theron
       科洛·莫瑞兹 Chlo? Grace Moretz
       奥斯卡·伊萨克 Oscar Isaac
       菲恩·伍法德 Finn Wolfhard
       艾莉森·珍妮 Allison Janney
       埃美·加西亚 Aimee Garcia
       尼克·克罗尔 Nick Kroll
       艾尔西·费舍尔 Elsie Fisher
       贝特·米德勒 Bette Midler
       斯科特?安德伍德 Scott Underwood


标  签 黑色幽默 | 美国 | 喜剧 | 哥特 | 2019 | 恐怖 | 动画片 | 怪诞

简  介  

  米高梅定格动画版《亚当斯一家》组建团队,除此前确定的奥斯卡·伊萨克,查理兹·塞隆、艾莉森·珍妮、科洛·莫瑞兹、菲恩·伍法德、尼克·克罗尔、贝特·迈德尔也加盟。讲述一个诡异古怪的家庭与一个狡猾的真人秀主持人对峙,这个家庭同时也在为新生命的到来做准备,将举办一场亚当斯式的庆祝派对。
  伊萨克和塞隆为戈麦斯&莫提西亚·亚当斯夫妇配音,莫瑞兹配Wednesday ,伍法德配Pugsley ,迈德尔配祖母,克罗尔配Fester叔叔,珍妮配反派Margaux Needler。
  康拉德·弗农(《香肠派对》《马达加斯加3》《怪物史瑞克2》)和格雷格·蒂曼(《香肠派对》)执导,漫画家、该系列电视剧、电影的制作人查尔斯·亚当斯和Matt Lieberman、Pamela Pettler(《僵尸新娘》《怪兽屋》《机器人9号》)共同编写剧本,北美2019年10月11日北美上映。
  原版漫画由查尔斯·亚当斯创作,围绕戈麦斯&莫提西亚·亚当斯夫妇及他们的孩子Wednesday、Pugsley和一群亲戚展开故事。亚当斯一家属于典型哥特式家庭,富有但古怪,亲人之间的复杂关系和家产争夺让他们的生活陷入混乱之中。1964年首次被改编成真人版电视剧,之后又陆续开发了动画版,三部真人电影分别于1991、1993、1998年上映,还被改编成音乐剧登陆百老汇。

获奖情况  

  第47届动画安妮奖(2020)
  最佳艺术指导(提名) 克里斯·苏扎 / 余杰克 / 帕特里夏·阿奇森 / 玛莎·摩尔
  最佳角色设计(提名)


该资源信息参数
  1. Video
  2. ID                                       : 1
  3. Format                                   : AVC
  4. Format/Info                              : Advanced Video Codec
  5. Format profile                           : High@L4
  6. Format settings                          : CABAC / 2 Ref Frames
  7. Format settings, CABAC                   : Yes
  8. Format settings, Reference frames        : 2 frames
  9. Codec ID                                 : V_MPEG4/ISO/AVC
  10. Duration                                 : 1 h 27 min
  11. Bit rate mode                            : Variable
  12. Bit rate                                 : 29.3 Mb/s
  13. Width                                    : 1 920 pixels
  14. Height                                   : 1 080 pixels
  15. Display aspect ratio                     : 16:9
  16. Frame rate mode                          : Constant
  17. Frame rate                               : 23.976 (24000/1001) FPS
  18. Color space                              : YUV
  19. Chroma subsampling                       : 4:2:0
  20. Bit depth                                : 8 bits
  21. Scan type                                : Progressive
  22. Bits/(Pixel*Frame)                       : 0.589
  23. Stream size                              : 17.8 GiB (80%)
  24. Title                                    : The.Addams.Family.2019.1080p.BluRay.REMUX.AVC.DTS-HD.MA.7.1-FGT
  25. Language                                 : English
  26. Default                                  : No
  27. Forced                                   : No

  28. Audio #1
  29. ID                                       : 2
  30. Format                                   : DTS XLL
  31. Format/Info                              : Digital Theater Systems
  32. Commercial name                          : DTS-HD Master Audio
  33. Codec ID                                 : A_DTS
  34. Duration                                 : 1 h 27 min
  35. Bit rate mode                            : Variable
  36. Bit rate                                 : 4 319 kb/s
  37. Channel(s)                               : 8 channels
  38. Channel layout                           : C L R LFE Lb Rb Lss Rss
  39. Sampling rate                            : 48.0 kHz
  40. Frame rate                               : 93.750 FPS (512 SPF)
  41. Bit depth                                : 24 bits
  42. Compression mode                         : Lossless
  43. Stream size                              : 2.63 GiB (12%)
  44. Title                                    : The.Addams.Family.2019.1080p.BluRay.REMUX.AVC.DTS-HD.MA.7.1-FGT
  45. Language                                 : English
  46. Default                                  : Yes
  47. Forced                                   : No

  48. Audio #2
  49. ID                                       : 3
  50. Format                                   : DTS XBR
  51. Format/Info                              : Digital Theater Systems
  52. Commercial name                          : DTS-HD High Resolution Audio
  53. Codec ID                                 : A_DTS
  54. Duration                                 : 1 h 27 min
  55. Bit rate mode                            : Constant
  56. Bit rate                                 : 2 046 kb/s
  57. Channel(s)                               : 8 channels
  58. Channel layout                           : C L R LFE Lb Rb Lss Rss
  59. Sampling rate                            : 48.0 kHz
  60. Frame rate                               : 93.750 FPS (512 SPF)
  61. Bit depth                                : 24 bits
  62. Compression mode                         : Lossy
  63. Stream size                              : 1.24 GiB (6%)
  64. Title                                    : The.Addams.Family.2019.1080p.BluRay.REMUX.AVC.DTS-HD.MA.7.1-FGT
  65. Language                                 : Spanish
  66. Default                                  : No
  67. Forced                                   : No

  68. Audio #3
  69. ID                                       : 4
  70. Format                                   : DTS
  71. Format/Info                              : Digital Theater Systems
  72. Codec ID                                 : A_DTS
  73. Duration                                 : 1 h 27 min
  74. Bit rate mode                            : Constant
  75. Bit rate                                 : 768 kb/s
  76. Channel(s)                               : 6 channels
  77. Channel layout                           : C L R Ls Rs LFE
  78. Sampling rate                            : 48.0 kHz
  79. Frame rate                               : 93.750 FPS (512 SPF)
  80. Bit depth                                : 24 bits
  81. Compression mode                         : Lossy
  82. Stream size                              : 478 MiB (2%)
  83. Title                                    : The.Addams.Family.2019.1080p.BluRay.REMUX.AVC.DTS-HD.MA.7.1-FGT
  84. Language                                 : French
  85. Default                                  : No
  86. Forced                                   : No

  87. Audio #4
  88. ID                                       : 5
  89. Format                                   : AC-3
  90. Format/Info                              : Audio Coding 3
  91. Commercial name                          : Dolby Digital
  92. Codec ID                                 : A_AC3
  93. Duration                                 : 1 h 27 min
  94. Bit rate mode                            : Constant
  95. Bit rate                                 : 192 kb/s
  96. Channel(s)                               : 2 channels
  97. Channel layout                           : L R
  98. Sampling rate                            : 48.0 kHz
  99. Frame rate                               : 31.250 FPS (1536 SPF)
  100. Bit depth                                : 16 bits
  101. Compression mode                         : Lossy
  102. Stream size                              : 120 MiB (1%)
  103. Title                                    : The.Addams.Family.2019.1080p.BluRay.REMUX.AVC.DTS-HD.MA.7.1-FGT
  104. Language                                 : English
  105. Service kind                             : Complete Main
  106. Default                                  : No
  107. Forced                                   : No

  108. Text #1
  109. ID                                       : 6
  110. Format                                   : UTF-8
  111. Codec ID                                 : S_TEXT/UTF8
  112. Codec ID/Info                            : UTF-8 Plain Text
  113. Duration                                 : 1 h 25 min
  114. Bit rate                                 : 69 b/s
  115. Count of elements                        : 1436
  116. Stream size                              : 43.3 KiB (0%)
  117. Title                                    : English-SRT
  118. Language                                 : English
  119. Default                                  : Yes
  120. Forced                                   : No

  121. Text #2
  122. ID                                       : 7
  123. Format                                   : PGS
  124. Muxing mode                              : zlib
  125. Codec ID                                 : S_HDMV/PGS
  126. Codec ID/Info                            : Picture based subtitle format used on BDs/HD-DVDs
  127. Duration                                 : 1 h 25 min
  128. Bit rate                                 : 50.6 kb/s
  129. Count of elements                        : 2812
  130. Stream size                              : 31.1 MiB (0%)
  131. Title                                    : English-PGS
  132. Language                                 : English
  133. Default                                  : No
  134. Forced                                   : No

  135. Text #3
  136. ID                                       : 8
  137. Format                                   : PGS
  138. Muxing mode                              : zlib
  139. Codec ID                                 : S_HDMV/PGS
  140. Codec ID/Info                            : Picture based subtitle format used on BDs/HD-DVDs
  141. Duration                                 : 1 h 25 min
  142. Bit rate                                 : 44.4 kb/s
  143. Count of elements                        : 2504
  144. Stream size                              : 27.2 MiB (0%)
  145. Title                                    : Spanish-PGS
  146. Language                                 : Spanish
  147. Default                                  : No
  148. Forced                                   : No

  149. Text #4
  150. ID                                       : 9
  151. Format                                   : PGS
  152. Muxing mode                              : zlib
  153. Codec ID                                 : S_HDMV/PGS
  154. Codec ID/Info                            : Picture based subtitle format used on BDs/HD-DVDs
  155. Duration                                 : 1 h 25 min
  156. Bit rate                                 : 47.6 kb/s
  157. Count of elements                        : 2460
  158. Stream size                              : 29.3 MiB (0%)
  159. Title                                    : French-PGS
  160. Language                                 : French
  161. Default                                  : No
  162. Forced                                   : No

  163. Text #5
  164. ID                                       : 10
  165. Format                                   : PGS
  166. Muxing mode                              : zlib
  167. Codec ID                                 : S_HDMV/PGS
  168. Codec ID/Info                            : Picture based subtitle format used on BDs/HD-DVDs
  169. Duration                                 : 1 h 25 min
  170. Bit rate                                 : 3 941 b/s
  171. Count of elements                        : 228
  172. Stream size                              : 2.41 MiB (0%)
  173. Title                                    : Spanish-FORCED-PGS
  174. Language                                 : Spanish
  175. Default                                  : No
  176. Forced                                   : No

  177. Text #6
  178. ID                                       : 11
  179. Format                                   : PGS
  180. Muxing mode                              : zlib
  181. Codec ID                                 : S_HDMV/PGS
  182. Codec ID/Info                            : Picture based subtitle format used on BDs/HD-DVDs
  183. Duration                                 : 1 h 25 min
  184. Bit rate                                 : 5 270 b/s
  185. Count of elements                        : 292
  186. Stream size                              : 3.24 MiB (0%)
  187. Title                                    : French-FORCED-PGS
  188. Language                                 : French
  189. Default                                  : No
  190. Forced                                   : No

  191. Menu
  192. 00:00:00.000                             : en:Chapter 01
  193. 00:05:08.558                             : en:Chapter 02
  194. 00:10:35.468                             : en:Chapter 03
  195. 00:15:46.612                             : en:Chapter 04
  196. 00:19:35.257                             : en:Chapter 05
  197. 00:25:14.596                             : en:Chapter 06
  198. 00:29:25.764                             : en:Chapter 07
  199. 00:34:20.475                             : en:Chapter 08
  200. 00:39:46.967                             : en:Chapter 09
  201. 00:45:01.740                             : en:Chapter 10
  202. 00:49:07.319                             : en:Chapter 11
  203. 00:53:40.926                             : en:Chapter 12
  204. 00:56:36.518                             : en:Chapter 13
  205. 01:00:00.763                             : en:Chapter 14
  206. 01:03:45.947                             : en:Chapter 15
  207. 01:06:02.166                             : en:Chapter 16
  208. 01:10:54.583                             : en:Chapter 17
  209. 01:18:09.476                             : en:Chapter 18
  210. 01:20:21.107                             : en:Chapter 19
  211. 01:21:11.449                             : en:Chapter 20
复制代码


精彩剧照

亚当斯一家/爱登士家庭 The.Addams.Family.2019.1080p.BluRay.REMUX.AVC.DTS-HD.MA.7.1-FGT 22.32GB ...

亚当斯一家/爱登士家庭 The.Addams.Family.2019.1080p.BluRay.REMUX.AVC.DTS-HD.MA.7.1-FGT 22.32GB ...

亚当斯一家/爱登士家庭 The.Addams.Family.2019.1080p.BluRay.REMUX.AVC.DTS-HD.MA.7.1-FGT 22.32GB ...

亚当斯一家/爱登士家庭 The.Addams.Family.2019.1080p.BluRay.REMUX.AVC.DTS-HD.MA.7.1-FGT 22.32GB ...

亚当斯一家/爱登士家庭 The.Addams.Family.2019.1080p.BluRay.REMUX.AVC.DTS-HD.MA.7.1-FGT 22.32GB ...

亚当斯一家/爱登士家庭 The.Addams.Family.2019.1080p.BluRay.REMUX.AVC.DTS-HD.MA.7.1-FGT 22.32GB ...



蓝光高清网提示您 点击下方附件名称 马上开始下载

The.Addams.Family.2019.1080p.BluRay.REMUX.AVC.DTS-HD.MA.7.1-FGT.torrent 
         (56.35 KB    阅读权限: 0)
加入蓝光高清网VIP会员  无限制下载本站所有资源---点这里

资源下载、资源播放、字幕使用、无法下载等常见问题---点这里
回复

使用道具 举报

精彩评论29

操FANTASY全家 发表于 2020-1-14 11:25:38 | 显示全部楼层
收藏了  谢谢
回复

使用道具 举报

happy2000617 发表于 2020-1-14 12:27:29 | 显示全部楼层
谢谢楼主分享
回复

使用道具 举报

狼迹2008 发表于 2020-1-14 13:49:22 | 显示全部楼层
亚当斯一家/爱登士家庭 The.Addams.Family.2019.1080p.BluRay.REMUX.AVC.DTS-HD.MA.7.1-FGT 22.32GB
回复

使用道具 举报

Talentdj 发表于 2020-1-14 13:59:31 | 显示全部楼层
希望蓝光高清网越来越好
回复

使用道具 举报

Chinazhan. 发表于 2020-1-14 13:59:31 | 显示全部楼层
亚当斯一家/爱登士家庭 The.Addams.Family.2019.1080p.BluRay.REMUX.AVC.DTS-HD.MA.7.1-FGT 22.32GB
回复

使用道具 举报

pdzb49 发表于 2020-1-14 14:04:32 | 显示全部楼层
支持一下
回复

使用道具 举报

dmoz 发表于 2020-1-14 14:45:11 | 显示全部楼层
支持一下
回复

使用道具 举报

飒羽临风 发表于 2020-1-14 15:51:15 | 显示全部楼层
楼主发贴辛苦了,谢谢楼主分享!
回复

使用道具 举报

chenlong5d 发表于 2020-1-14 16:47:29 | 显示全部楼层
好资源 收藏了 谢谢分享
回复

使用道具 举报

您需要登录后才可以回帖 登录 | 立即注册

本版积分规则

关注0

粉丝1

帖子88153

发布主题
最新电影 论坛
本期活动
联系我们
点击这里联系客服

服务时间:
周一到周日8:00-23:30

  • 打开微信扫一扫
    关注公众号

  • 手机QQ扫一扫
    添加客服

手机版蓝光高清网 |网站地图

Powered by Discuz! X3.4 Licensed  © 2001-2013 Comsenz Inc.