[喜剧片] 白烂贱客2/杰与沉默鲍勃重启 Jay.and.Silent.Bob.Reboot.2019.1080p.BluRay.REMUX.AVC.DTS-HD.MA.5.1-FGT 27.79GB

[复制链接]
蓝鸟VIP会员 永久VIP 发表于 2020-1-14 11:05:59 | 显示全部楼层 |阅读模式 打印 上一主题 下一主题

马上注册,轻松下载,海量资源,让你轻松玩转社区。

您需要 登录 才可以下载或查看,没有帐号?立即注册

x

白烂贱客2/杰与沉默鲍勃重启 Jay.and.Silent.Bob.Reboot.2019.1080p.BluRay.REMUX.AVC.DTS-HD.MA.5.1-FGT 2 ...

白烂贱客2/杰与沉默鲍勃重启 Jay.and.Silent.Bob.Reboot.2019.1080p.BluRay.REMUX.AVC.DTS-HD.MA.5.1-FGT 2 ...


译  名 白烂贱客2 / 杰与沉默鲍勃重启 / 白烂贱客续集 / 白烂贱客重启
片  名 Jay and Silent Bob Reboot
年  代 2019
产  地 美国
类  别 喜剧
语  言 英语
上映日期 2019-10-15(美国)
IMDb评分  6.3/10 from 2732 users
IMDb链接  https://www.imdb.com/title/tt6521876
豆瓣评分 0/10 from 0 users
豆瓣链接 https://movie.douban.com/subject/27043939/
片  长 95分钟
导  演 凯文·史密斯 Kevin Smith
编  剧 凯文·史密斯 Kevin Smith
主  演 凯文·史密斯 Kevin Smith
       杰森·缪斯 Jason Mewes
       本·阿弗莱克 Ben Affleck
       马特·达蒙 Matt Damon
       克里斯·海姆斯沃斯 Chris Hemsworth
       乔·曼根尼罗 Joe Manganiello
       罗莎里奥·道森 Rosario Dawson
       梅莉莎·班诺伊 Melissa Benoist
       格兰特·古斯汀 Grant Gustin
       贾斯汀·朗 Justin Long
       莎诺·伊丽莎白 Shannon Elizabeth
       乔伊·劳伦·亚当斯 Joey Lauren Adams
       杰森·李 Jason Lee
       凯特·米库奇 Kate Micucci
       贾森·比格斯 Jason Biggs
       哈莉·奎恩·史密斯 Harley Quinn Smith
       方·基默 Val Kilmer
       大卫·达斯马齐连 David Dastmalchian
       詹姆斯·范德比克 James Van Der Beek
       戴德里克·巴德 Diedrich Bader
       汤姆·卡瓦纳夫 Tom Cavanagh
       弗兰西斯·肖 Frances Shaw
       约瑟夫·D·雷特曼 Joseph D. Reitman
       克雷格·罗宾森 Craig Robinson
       莫莉·香侬 Molly Shannon
       詹妮弗·斯沃巴奇·史密斯 Jennifer Schwalbach Smith
       马索·曼恩 Method Man
       杰夫·蔡斯 Jeff Chase
       汤米·钟 Tommy Chong
       卡洛斯·瓦尔德斯 Carlos Valdes
       Aparna Brielle
       布莱恩·奥哈罗兰 Brian O"Halloran
       拉尔夫·加曼 Ralph Garman
       克里斯·杰里科 Chris Jericho
       杰克·理查德森 Jake Richardson
       莱德曼 Redman
       唐尼尔·罗林斯 Donnell Rawlings
       比利·斯洛特 Billy Slaughter
       爱丽丝·温 Alice Wen
       Treshelle Edmond
       Lex Lybrand
       Eric Rhoades


标  签 喜剧 | 美国 | KevinSmith | 2019 | 欧美电影 | JasonMewes | 电影 | 美国电影

简  介  

  The story finds Jason Mewes" Jay and Smith"s Silent Bob learning that a studio wants to reboot the Bluntman And Chronic movie that was based on the comic inspired by the two stoners. And they"re not happy. Again. So begins a cross-country quest to shut it down.


该资源信息参数
  1. Video
  2. ID                                       : 1
  3. Format                                   : AVC
  4. Format/Info                              : Advanced Video Codec
  5. Format profile                           : High@L4
  6. Format settings                          : CABAC / 4 Ref Frames
  7. Format settings, CABAC                   : Yes
  8. Format settings, Reference frames        : 4 frames
  9. Codec ID                                 : V_MPEG4/ISO/AVC
  10. Duration                                 : 1 h 45 min
  11. Bit rate mode                            : Variable
  12. Bit rate                                 : 33.9 Mb/s
  13. Maximum bit rate                         : 37.0 Mb/s
  14. Width                                    : 1 920 pixels
  15. Height                                   : 1 080 pixels
  16. Display aspect ratio                     : 16:9
  17. Frame rate mode                          : Constant
  18. Frame rate                               : 23.976 (24000/1001) FPS
  19. Color space                              : YUV
  20. Chroma subsampling                       : 4:2:0
  21. Bit depth                                : 8 bits
  22. Scan type                                : Progressive
  23. Bits/(Pixel*Frame)                       : 0.681
  24. Stream size                              : 24.9 GiB (90%)
  25. Title                                    : Jay.and.Silent.Bob.Reboot.2019.1080p.BluRay.REMUX.AVC.DTS-HD.MA.5.1-FGT
  26. Language                                 : English
  27. Default                                  : No
  28. Forced                                   : No

  29. Audio
  30. ID                                       : 2
  31. Format                                   : DTS XLL
  32. Format/Info                              : Digital Theater Systems
  33. Commercial name                          : DTS-HD Master Audio
  34. Codec ID                                 : A_DTS
  35. Duration                                 : 1 h 45 min
  36. Bit rate mode                            : Variable
  37. Bit rate                                 : 3 847 kb/s
  38. Channel(s)                               : 6 channels
  39. Channel layout                           : C L R Ls Rs LFE
  40. Sampling rate                            : 48.0 kHz
  41. Frame rate                               : 93.750 FPS (512 SPF)
  42. Bit depth                                : 24 bits
  43. Compression mode                         : Lossless
  44. Stream size                              : 2.83 GiB (10%)
  45. Title                                    : Jay.and.Silent.Bob.Reboot.2019.1080p.BluRay.REMUX.AVC.DTS-HD.MA.5.1-FGT
  46. Language                                 : English
  47. Default                                  : Yes
  48. Forced                                   : No

  49. Text #1
  50. ID                                       : 3
  51. Format                                   : UTF-8
  52. Codec ID                                 : S_TEXT/UTF8
  53. Codec ID/Info                            : UTF-8 Plain Text
  54. Duration                                 : 1 h 43 min
  55. Bit rate                                 : 87 b/s
  56. Count of elements                        : 1886
  57. Stream size                              : 66.3 KiB (0%)
  58. Title                                    : English-SRT
  59. Language                                 : English
  60. Default                                  : Yes
  61. Forced                                   : No

  62. Text #2
  63. ID                                       : 4
  64. Format                                   : PGS
  65. Muxing mode                              : zlib
  66. Codec ID                                 : S_HDMV/PGS
  67. Codec ID/Info                            : Picture based subtitle format used on BDs/HD-DVDs
  68. Duration                                 : 1 h 44 min
  69. Bit rate                                 : 67.9 kb/s
  70. Count of elements                        : 3936
  71. Stream size                              : 50.5 MiB (0%)
  72. Language                                 : English
  73. Default                                  : No
  74. Forced                                   : No

  75. Text #3
  76. ID                                       : 5
  77. Format                                   : PGS
  78. Muxing mode                              : zlib
  79. Codec ID                                 : S_HDMV/PGS
  80. Codec ID/Info                            : Picture based subtitle format used on BDs/HD-DVDs
  81. Duration                                 : 1 h 43 min
  82. Bit rate                                 : 59.9 kb/s
  83. Count of elements                        : 3629
  84. Stream size                              : 44.3 MiB (0%)
  85. Language                                 : Spanish
  86. Default                                  : No
  87. Forced                                   : No

  88. Menu
  89. 00:00:00.000                             : en:Chapter 01
  90. 00:03:38.676                             : en:Chapter 02
  91. 00:09:30.653                             : en:Chapter 03
  92. 00:16:32.658                             : en:Chapter 04
  93. 00:24:10.323                             : en:Chapter 05
  94. 00:30:43.633                             : en:Chapter 06
  95. 00:40:34.014                             : en:Chapter 07
  96. 00:44:53.941                             : en:Chapter 08
  97. 00:48:46.715                             : en:Chapter 09
  98. 00:54:34.020                             : en:Chapter 10
  99. 00:59:27.146                             : en:Chapter 11
  100. 01:07:03.227                             : en:Chapter 12
  101. 01:10:01.697                             : en:Chapter 13
  102. 01:16:08.480                             : en:Chapter 14
  103. 01:25:37.215                             : en:Chapter 15
  104. 01:32:39.762                             : en:Chapter 16
复制代码


精彩剧照

白烂贱客2/杰与沉默鲍勃重启 Jay.and.Silent.Bob.Reboot.2019.1080p.BluRay.REMUX.AVC.DTS-HD.MA.5.1-FGT 2 ...

白烂贱客2/杰与沉默鲍勃重启 Jay.and.Silent.Bob.Reboot.2019.1080p.BluRay.REMUX.AVC.DTS-HD.MA.5.1-FGT 2 ...

白烂贱客2/杰与沉默鲍勃重启 Jay.and.Silent.Bob.Reboot.2019.1080p.BluRay.REMUX.AVC.DTS-HD.MA.5.1-FGT 2 ...

白烂贱客2/杰与沉默鲍勃重启 Jay.and.Silent.Bob.Reboot.2019.1080p.BluRay.REMUX.AVC.DTS-HD.MA.5.1-FGT 2 ...

白烂贱客2/杰与沉默鲍勃重启 Jay.and.Silent.Bob.Reboot.2019.1080p.BluRay.REMUX.AVC.DTS-HD.MA.5.1-FGT 2 ...

白烂贱客2/杰与沉默鲍勃重启 Jay.and.Silent.Bob.Reboot.2019.1080p.BluRay.REMUX.AVC.DTS-HD.MA.5.1-FGT 2 ...



蓝光高清网提示您 点击下方附件名称 马上开始下载

Jay.and.Silent.Bob.Reboot.2019.1080p.BluRay.REMUX.AVC.DTS-HD.MA.5.1-FGT.torrent (70.05 KB, 下载次数: 0)

加入蓝光高清网VIP会员  无限制下载本站所有资源---点此加入

资源下载、资源播放、字幕使用、无法下载等常见问题---点这里

回复

使用道具 举报

精彩评论24

donghua 发表于 2020-1-14 11:20:35 | 显示全部楼层
感谢楼主的无私分享!

加入蓝光高清网VIP会员  无限制下载本站所有资源---点此加入

资源下载、资源播放、字幕使用、无法下载等常见问题---点这里

回复

使用道具 举报

skylovewo 发表于 2020-1-14 11:51:36 | 显示全部楼层
楼主,大恩不言谢了!

加入蓝光高清网VIP会员  无限制下载本站所有资源---点此加入

资源下载、资源播放、字幕使用、无法下载等常见问题---点这里

回复

使用道具 举报

浪·人 发表于 2020-1-14 12:42:48 | 显示全部楼层
还是蓝光看起带劲 音效爆棚

加入蓝光高清网VIP会员  无限制下载本站所有资源---点此加入

资源下载、资源播放、字幕使用、无法下载等常见问题---点这里

回复

使用道具 举报

zhf0427 发表于 2020-1-14 13:08:59 | 显示全部楼层
楼主发贴辛苦了,谢谢楼主分享!

加入蓝光高清网VIP会员  无限制下载本站所有资源---点此加入

资源下载、资源播放、字幕使用、无法下载等常见问题---点这里

回复

使用道具 举报

xsliori 发表于 2020-1-14 13:24:09 | 显示全部楼层
好好 学习了 确实不错

加入蓝光高清网VIP会员  无限制下载本站所有资源---点此加入

资源下载、资源播放、字幕使用、无法下载等常见问题---点这里

回复

使用道具 举报

sheshou2008 发表于 2020-1-14 13:29:12 | 显示全部楼层
下载来看看

加入蓝光高清网VIP会员  无限制下载本站所有资源---点此加入

资源下载、资源播放、字幕使用、无法下载等常见问题---点这里

回复

使用道具 举报

vincentwind 发表于 2020-1-14 17:44:08 | 显示全部楼层
好好 学习了 确实不错

加入蓝光高清网VIP会员  无限制下载本站所有资源---点此加入

资源下载、资源播放、字幕使用、无法下载等常见问题---点这里

回复

使用道具 举报

amwkfnui 发表于 2020-1-14 19:47:19 | 显示全部楼层
路过,学习下

加入蓝光高清网VIP会员  无限制下载本站所有资源---点此加入

资源下载、资源播放、字幕使用、无法下载等常见问题---点这里

回复

使用道具 举报

hg34520 发表于 2020-1-14 19:52:22 | 显示全部楼层
蓝光高清网是个好地方

加入蓝光高清网VIP会员  无限制下载本站所有资源---点此加入

资源下载、资源播放、字幕使用、无法下载等常见问题---点这里

回复

使用道具 举报

懒得打字嘛,点击右侧快捷回复
您需要登录后才可以回帖 登录 | 立即注册

本版积分规则

关注0

粉丝0

帖子72186

发布主题
最新电影 论坛
本期活动
联系我们
点击这里联系客服

服务时间:
周一到周日8:00-23:30

  • 打开微信扫一扫
    关注公众号

  • 手机QQ扫一扫
    添加客服

Archiver手机版蓝光高清网 ( 渝ICP备18006373号-2 )|网站地图

Powered by Discuz! X3.4  © 2001-2013 Comsenz Inc.