[剧情片] 蓝与黑 Black.and.Blue.2019.1080p.BluRay.REMUX.AVC.DTS-HD.MA.5.1-FGT 24.79GB

[复制链接]
蓝鸟VIP会员 永久VIP 发表于 2020-1-14 11:07:07 | 显示全部楼层 |阅读模式 打印 上一主题 下一主题

马上注册,轻松下载,海量资源,让你轻松玩转社区。

您需要 登录 才可以下载或查看,没有帐号?立即注册

x

蓝与黑 Black.and.Blue.2019.1080p.BluRay.REMUX.AVC.DTS-HD.MA.5.1-FGT 24.79GB

蓝与黑 Black.and.Blue.2019.1080p.BluRay.REMUX.AVC.DTS-HD.MA.5.1-FGT 24.79GB


译  名 蓝与黑 / Exposure / 黑与蓝
片  名 Black and Blue
年  代 2019
产  地 美国
类  别 剧情 / 动作 / 惊悚 / 犯罪
语  言 英语
上映日期 2019-09-21(都市世界电影节) / 2019-10-25(美国)
IMDb评分  6.0/10 from 4412 users
IMDb链接  https://www.imdb.com/title/tt7390646
豆瓣评分 6.4/10 from 714 users
豆瓣链接 https://movie.douban.com/subject/30400499/
片  长 108分钟
导  演 德翁·泰勒 Deon Taylor
编  剧 彼得·A·道林 Peter A. Dowling
主  演 娜奥米·哈里斯 Naomie Harris
       弗兰克·格里罗 Frank Grillo
       瑞德·斯科特 Reid Scott
       麦克·柯尔特 Mike Colter
       泰瑞斯·吉布森 Tyrese Gibson
       博·纳普 Beau Knapp
       娜菲萨·威廉姆斯 Nafessa Williams
       迈克尔·帕帕约翰 Michael Papajohn
       纳尔逊·波尼拉 Nelson Bonilla
       詹姆斯·摩西·布莱克 James Moses Black
       韦米蒂娅·埃拉恩 Vermyttya Erahn
       安东尼·迈克尔·弗雷德里克 Anthony Michael Frederick


标  签 犯罪 | 美国 | 警匪 | 动作 | 种族 | 2019 | 惊悚 | 悬疑

简  介  

  娜奥米·哈里斯将主演警探题材惊悚片[蓝与黑](Black And Blue,暂译),德翁·泰勒([假日惊魂])执导,彼得·A·道林([空中危机])操刀剧本。故事讲述一名新手警察(娜奥米饰)目睹了腐败官员谋杀一名毒贩的过程,而且她随身携带的摄像头录下了这一幕。她从这些腐败官员手里逃脱出来,陷入了被谋杀的危险境地。


该资源信息参数
  1. Video
  2. ID                                       : 1
  3. Format                                   : AVC
  4. Format/Info                              : Advanced Video Codec
  5. Format profile                           : High@L4
  6. Format settings                          : CABAC / 2 Ref Frames
  7. Format settings, CABAC                   : Yes
  8. Format settings, Reference frames        : 2 frames
  9. Format settings, GOP                     : M=1, N=10
  10. Codec ID                                 : V_MPEG4/ISO/AVC
  11. Duration                                 : 1 h 47 min
  12. Bit rate mode                            : Variable
  13. Bit rate                                 : 24.9 Mb/s
  14. Width                                    : 1 920 pixels
  15. Height                                   : 1 080 pixels
  16. Display aspect ratio                     : 16:9
  17. Frame rate mode                          : Constant
  18. Frame rate                               : 23.976 (24000/1001) FPS
  19. Color space                              : YUV
  20. Chroma subsampling                       : 4:2:0
  21. Bit depth                                : 8 bits
  22. Scan type                                : Progressive
  23. Bits/(Pixel*Frame)                       : 0.501
  24. Stream size                              : 18.8 GiB (76%)
  25. Title                                    : Black.and.Blue.2019.1080p.BluRay.REMUX.AVC.DTS-HD.MA.5.1-FGT
  26. Language                                 : English
  27. Default                                  : No
  28. Forced                                   : No

  29. Audio #1
  30. ID                                       : 2
  31. Format                                   : DTS XLL
  32. Format/Info                              : Digital Theater Systems
  33. Commercial name                          : DTS-HD Master Audio
  34. Codec ID                                 : A_DTS
  35. Duration                                 : 1 h 47 min
  36. Bit rate mode                            : Variable
  37. Bit rate                                 : 2 206 kb/s
  38. Channel(s)                               : 6 channels
  39. Channel layout                           : C L R Ls Rs LFE
  40. Sampling rate                            : 48.0 kHz
  41. Frame rate                               : 93.750 FPS (512 SPF)
  42. Bit depth                                : 16 bits
  43. Compression mode                         : Lossless
  44. Stream size                              : 1.66 GiB (7%)
  45. Title                                    : Black.and.Blue.2019.1080p.BluRay.REMUX.AVC.DTS-HD.MA.5.1-FGT
  46. Language                                 : English
  47. Default                                  : Yes
  48. Forced                                   : No

  49. Audio #2
  50. ID                                       : 3
  51. Format                                   : AC-3
  52. Format/Info                              : Audio Coding 3
  53. Commercial name                          : Dolby Digital
  54. Codec ID                                 : A_AC3
  55. Duration                                 : 1 h 47 min
  56. Bit rate mode                            : Constant
  57. Bit rate                                 : 640 kb/s
  58. Channel(s)                               : 6 channels
  59. Channel layout                           : L R C LFE Ls Rs
  60. Sampling rate                            : 48.0 kHz
  61. Frame rate                               : 31.250 FPS (1536 SPF)
  62. Bit depth                                : 16 bits
  63. Compression mode                         : Lossy
  64. Stream size                              : 494 MiB (2%)
  65. Title                                    : Black.and.Blue.2019.1080p.BluRay.REMUX.AVC.DTS-HD.MA.5.1-FGT
  66. Language                                 : English
  67. Service kind                             : Complete Main
  68. Default                                  : No
  69. Forced                                   : No

  70. Audio #3
  71. ID                                       : 4
  72. Format                                   : AC-3
  73. Format/Info                              : Audio Coding 3
  74. Commercial name                          : Dolby Digital
  75. Codec ID                                 : A_AC3
  76. Duration                                 : 1 h 47 min
  77. Bit rate mode                            : Constant
  78. Bit rate                                 : 640 kb/s
  79. Channel(s)                               : 6 channels
  80. Channel layout                           : L R C LFE Ls Rs
  81. Sampling rate                            : 48.0 kHz
  82. Frame rate                               : 31.250 FPS (1536 SPF)
  83. Bit depth                                : 16 bits
  84. Compression mode                         : Lossy
  85. Stream size                              : 494 MiB (2%)
  86. Title                                    : Black.and.Blue.2019.1080p.BluRay.REMUX.AVC.DTS-HD.MA.5.1-FGT
  87. Language                                 : Czech
  88. Service kind                             : Complete Main
  89. Default                                  : No
  90. Forced                                   : No

  91. Audio #4
  92. ID                                       : 5
  93. Format                                   : AC-3
  94. Format/Info                              : Audio Coding 3
  95. Commercial name                          : Dolby Digital
  96. Codec ID                                 : A_AC3
  97. Duration                                 : 1 h 47 min
  98. Bit rate mode                            : Constant
  99. Bit rate                                 : 640 kb/s
  100. Channel(s)                               : 6 channels
  101. Channel layout                           : L R C LFE Ls Rs
  102. Sampling rate                            : 48.0 kHz
  103. Frame rate                               : 31.250 FPS (1536 SPF)
  104. Bit depth                                : 16 bits
  105. Compression mode                         : Lossy
  106. Stream size                              : 494 MiB (2%)
  107. Title                                    : Black.and.Blue.2019.1080p.BluRay.REMUX.AVC.DTS-HD.MA.5.1-FGT
  108. Language                                 : French
  109. Service kind                             : Complete Main
  110. Default                                  : No
  111. Forced                                   : No

  112. Audio #5
  113. ID                                       : 6
  114. Format                                   : DTS XLL
  115. Format/Info                              : Digital Theater Systems
  116. Commercial name                          : DTS-HD Master Audio
  117. Codec ID                                 : A_DTS
  118. Duration                                 : 1 h 47 min
  119. Bit rate mode                            : Variable
  120. Bit rate                                 : 2 199 kb/s
  121. Channel(s)                               : 6 channels
  122. Channel layout                           : C L R Ls Rs LFE
  123. Sampling rate                            : 48.0 kHz
  124. Frame rate                               : 93.750 FPS (512 SPF)
  125. Bit depth                                : 16 bits
  126. Compression mode                         : Lossless
  127. Stream size                              : 1.66 GiB (7%)
  128. Title                                    : Black.and.Blue.2019.1080p.BluRay.REMUX.AVC.DTS-HD.MA.5.1-FGT
  129. Language                                 : Italian
  130. Default                                  : No
  131. Forced                                   : No

  132. Audio #6
  133. ID                                       : 7
  134. Format                                   : AC-3
  135. Format/Info                              : Audio Coding 3
  136. Commercial name                          : Dolby Digital
  137. Codec ID                                 : A_AC3
  138. Duration                                 : 1 h 47 min
  139. Bit rate mode                            : Constant
  140. Bit rate                                 : 640 kb/s
  141. Channel(s)                               : 6 channels
  142. Channel layout                           : L R C LFE Ls Rs
  143. Sampling rate                            : 48.0 kHz
  144. Frame rate                               : 31.250 FPS (1536 SPF)
  145. Bit depth                                : 16 bits
  146. Compression mode                         : Lossy
  147. Stream size                              : 494 MiB (2%)
  148. Title                                    : Black.and.Blue.2019.1080p.BluRay.REMUX.AVC.DTS-HD.MA.5.1-FGT
  149. Language                                 : Polish
  150. Service kind                             : Complete Main
  151. Default                                  : No
  152. Forced                                   : No

  153. Audio #7
  154. ID                                       : 8
  155. Format                                   : AC-3
  156. Format/Info                              : Audio Coding 3
  157. Commercial name                          : Dolby Digital
  158. Codec ID                                 : A_AC3
  159. Duration                                 : 1 h 47 min
  160. Bit rate mode                            : Constant
  161. Bit rate                                 : 640 kb/s
  162. Channel(s)                               : 6 channels
  163. Channel layout                           : L R C LFE Ls Rs
  164. Sampling rate                            : 48.0 kHz
  165. Frame rate                               : 31.250 FPS (1536 SPF)
  166. Bit depth                                : 16 bits
  167. Compression mode                         : Lossy
  168. Stream size                              : 494 MiB (2%)
  169. Title                                    : Black.and.Blue.2019.1080p.BluRay.REMUX.AVC.DTS-HD.MA.5.1-FGT
  170. Language                                 : Spanish
  171. Service kind                             : Complete Main
  172. Default                                  : No
  173. Forced                                   : No

  174. Text #1
  175. ID                                       : 9
  176. Format                                   : UTF-8
  177. Codec ID                                 : S_TEXT/UTF8
  178. Codec ID/Info                            : UTF-8 Plain Text
  179. Duration                                 : 1 h 43 min
  180. Bit rate                                 : 50 b/s
  181. Count of elements                        : 1453
  182. Stream size                              : 38.2 KiB (0%)
  183. Title                                    : English-SRT
  184. Language                                 : English
  185. Default                                  : Yes
  186. Forced                                   : No

  187. Text #2
  188. ID                                       : 10
  189. Format                                   : PGS
  190. Muxing mode                              : zlib
  191. Codec ID                                 : S_HDMV/PGS
  192. Codec ID/Info                            : Picture based subtitle format used on BDs/HD-DVDs
  193. Duration                                 : 1 h 45 min
  194. Bit rate                                 : 37.1 kb/s
  195. Count of elements                        : 2941
  196. Stream size                              : 28.0 MiB (0%)
  197. Title                                    : English-PGS
  198. Language                                 : English
  199. Default                                  : No
  200. Forced                                   : No

  201. Text #3
  202. ID                                       : 11
  203. Format                                   : PGS
  204. Muxing mode                              : zlib
  205. Codec ID                                 : S_HDMV/PGS
  206. Codec ID/Info                            : Picture based subtitle format used on BDs/HD-DVDs
  207. Duration                                 : 1 h 43 min
  208. Bit rate                                 : 31.3 kb/s
  209. Count of elements                        : 2490
  210. Stream size                              : 23.1 MiB (0%)
  211. Title                                    : English-PGS
  212. Language                                 : English
  213. Default                                  : No
  214. Forced                                   : No

  215. Text #4
  216. ID                                       : 12
  217. Format                                   : PGS
  218. Muxing mode                              : zlib
  219. Codec ID                                 : S_HDMV/PGS
  220. Codec ID/Info                            : Picture based subtitle format used on BDs/HD-DVDs
  221. Duration                                 : 1 h 45 min
  222. Bit rate                                 : 37.2 kb/s
  223. Count of elements                        : 2941
  224. Stream size                              : 28.0 MiB (0%)
  225. Title                                    : English-PGS
  226. Language                                 : English
  227. Default                                  : No
  228. Forced                                   : No

  229. Text #5
  230. ID                                       : 13
  231. Format                                   : PGS
  232. Muxing mode                              : zlib
  233. Codec ID                                 : S_HDMV/PGS
  234. Codec ID/Info                            : Picture based subtitle format used on BDs/HD-DVDs
  235. Duration                                 : 1 h 43 min
  236. Bit rate                                 : 31.4 kb/s
  237. Count of elements                        : 2490
  238. Stream size                              : 23.1 MiB (0%)
  239. Title                                    : English-PGS
  240. Language                                 : English
  241. Default                                  : No
  242. Forced                                   : No

  243. Text #6
  244. ID                                       : 14
  245. Format                                   : PGS
  246. Muxing mode                              : zlib
  247. Codec ID                                 : S_HDMV/PGS
  248. Codec ID/Info                            : Picture based subtitle format used on BDs/HD-DVDs
  249. Duration                                 : 1 h 47 min
  250. Bit rate                                 : 18.5 kb/s
  251. Count of elements                        : 2526
  252. Stream size                              : 14.3 MiB (0%)
  253. Title                                    : Arabic-PGS
  254. Language                                 : Arabic
  255. Default                                  : No
  256. Forced                                   : No

  257. Text #7
  258. ID                                       : 15
  259. Format                                   : PGS
  260. Muxing mode                              : zlib
  261. Codec ID                                 : S_HDMV/PGS
  262. Codec ID/Info                            : Picture based subtitle format used on BDs/HD-DVDs
  263. Duration                                 : 1 h 47 min
  264. Bit rate                                 : 23.8 kb/s
  265. Count of elements                        : 2528
  266. Stream size                              : 18.3 MiB (0%)
  267. Title                                    : Bulgarian-PGS
  268. Language                                 : Bulgarian
  269. Default                                  : No
  270. Forced                                   : No

  271. Text #8
  272. ID                                       : 16
  273. Format                                   : PGS
  274. Muxing mode                              : zlib
  275. Codec ID                                 : S_HDMV/PGS
  276. Codec ID/Info                            : Picture based subtitle format used on BDs/HD-DVDs
  277. Duration                                 : 1 h 47 min
  278. Bit rate                                 : 24.8 kb/s
  279. Count of elements                        : 2520
  280. Stream size                              : 19.1 MiB (0%)
  281. Title                                    : Chinese-PGS
  282. Language                                 : Chinese
  283. Default                                  : No
  284. Forced                                   : No

  285. Text #9
  286. ID                                       : 17
  287. Format                                   : PGS
  288. Muxing mode                              : zlib
  289. Codec ID                                 : S_HDMV/PGS
  290. Codec ID/Info                            : Picture based subtitle format used on BDs/HD-DVDs
  291. Duration                                 : 1 h 47 min
  292. Bit rate                                 : 24.3 kb/s
  293. Count of elements                        : 2522
  294. Stream size                              : 18.7 MiB (0%)
  295. Title                                    : Chinese-PGS
  296. Language                                 : Chinese
  297. Default                                  : No
  298. Forced                                   : No

  299. Text #10
  300. ID                                       : 18
  301. Format                                   : PGS
  302. Muxing mode                              : zlib
  303. Codec ID                                 : S_HDMV/PGS
  304. Codec ID/Info                            : Picture based subtitle format used on BDs/HD-DVDs
  305. Duration                                 : 1 h 47 min
  306. Bit rate                                 : 24.5 kb/s
  307. Count of elements                        : 2518
  308. Stream size                              : 18.9 MiB (0%)
  309. Title                                    : Croatian-PGS
  310. Language                                 : Croatian
  311. Default                                  : No
  312. Forced                                   : No

  313. Text #11
  314. ID                                       : 19
  315. Format                                   : PGS
  316. Muxing mode                              : zlib
  317. Codec ID                                 : S_HDMV/PGS
  318. Codec ID/Info                            : Picture based subtitle format used on BDs/HD-DVDs
  319. Duration                                 : 1 h 47 min
  320. Bit rate                                 : 25.3 kb/s
  321. Count of elements                        : 2534
  322. Stream size                              : 19.5 MiB (0%)
  323. Title                                    : Czech-PGS
  324. Language                                 : Czech
  325. Default                                  : No
  326. Forced                                   : No

  327. Text #12
  328. ID                                       : 20
  329. Format                                   : PGS
  330. Muxing mode                              : zlib
  331. Codec ID                                 : S_HDMV/PGS
  332. Codec ID/Info                            : Picture based subtitle format used on BDs/HD-DVDs
  333. Duration                                 : 1 h 45 min
  334. Bit rate                                 : 285 b/s
  335. Count of elements                        : 32
  336. Stream size                              : 220 KiB (0%)
  337. Title                                    : Czech-FORCED-PGS
  338. Language                                 : Czech
  339. Default                                  : No
  340. Forced                                   : No

  341. Text #13
  342. ID                                       : 21
  343. Format                                   : PGS
  344. Muxing mode                              : zlib
  345. Codec ID                                 : S_HDMV/PGS
  346. Codec ID/Info                            : Picture based subtitle format used on BDs/HD-DVDs
  347. Duration                                 : 1 h 47 min
  348. Bit rate                                 : 18.9 kb/s
  349. Count of elements                        : 2454
  350. Stream size                              : 14.5 MiB (0%)
  351. Title                                    : French-PGS
  352. Language                                 : French
  353. Default                                  : No
  354. Forced                                   : No

  355. Text #14
  356. ID                                       : 22
  357. Format                                   : PGS
  358. Muxing mode                              : zlib
  359. Codec ID                                 : S_HDMV/PGS
  360. Codec ID/Info                            : Picture based subtitle format used on BDs/HD-DVDs
  361. Duration                                 : 1 h 45 min
  362. Bit rate                                 : 192 b/s
  363. Count of elements                        : 20
  364. Stream size                              : 148 KiB (0%)
  365. Title                                    : French-FORCED-PGS
  366. Language                                 : French
  367. Default                                  : No
  368. Forced                                   : No

  369. Text #15
  370. ID                                       : 23
  371. Format                                   : PGS
  372. Muxing mode                              : zlib
  373. Codec ID                                 : S_HDMV/PGS
  374. Codec ID/Info                            : Picture based subtitle format used on BDs/HD-DVDs
  375. Duration                                 : 1 h 43 min
  376. Bit rate                                 : 29.1 kb/s
  377. Count of elements                        : 2518
  378. Stream size                              : 21.5 MiB (0%)
  379. Title                                    : Greek-PGS
  380. Language                                 : Greek
  381. Default                                  : No
  382. Forced                                   : No

  383. Text #16
  384. ID                                       : 24
  385. Format                                   : PGS
  386. Muxing mode                              : zlib
  387. Codec ID                                 : S_HDMV/PGS
  388. Codec ID/Info                            : Picture based subtitle format used on BDs/HD-DVDs
  389. Duration                                 : 1 h 47 min
  390. Bit rate                                 : 21.1 kb/s
  391. Count of elements                        : 2526
  392. Stream size                              : 16.2 MiB (0%)
  393. Title                                    : Hebrew-PGS
  394. Language                                 : Hebrew
  395. Default                                  : No
  396. Forced                                   : No

  397. Text #17
  398. ID                                       : 25
  399. Format                                   : PGS
  400. Muxing mode                              : zlib
  401. Codec ID                                 : S_HDMV/PGS
  402. Codec ID/Info                            : Picture based subtitle format used on BDs/HD-DVDs
  403. Duration                                 : 1 h 47 min
  404. Bit rate                                 : 27.5 kb/s
  405. Count of elements                        : 2530
  406. Stream size                              : 21.2 MiB (0%)
  407. Title                                    : Hungarian-PGS
  408. Language                                 : Hungarian
  409. Default                                  : No
  410. Forced                                   : No

  411. Text #18
  412. ID                                       : 26
  413. Format                                   : PGS
  414. Muxing mode                              : zlib
  415. Codec ID                                 : S_HDMV/PGS
  416. Codec ID/Info                            : Picture based subtitle format used on BDs/HD-DVDs
  417. Duration                                 : 1 h 47 min
  418. Bit rate                                 : 26.8 kb/s
  419. Count of elements                        : 2382
  420. Stream size                              : 20.6 MiB (0%)
  421. Title                                    : Icelandic-PGS
  422. Language                                 : Icelandic
  423. Default                                  : No
  424. Forced                                   : No

  425. Text #19
  426. ID                                       : 27
  427. Format                                   : PGS
  428. Muxing mode                              : zlib
  429. Codec ID                                 : S_HDMV/PGS
  430. Codec ID/Info                            : Picture based subtitle format used on BDs/HD-DVDs
  431. Duration                                 : 1 h 47 min
  432. Bit rate                                 : 27.4 kb/s
  433. Count of elements                        : 2518
  434. Stream size                              : 21.1 MiB (0%)
  435. Title                                    : Italian-PGS
  436. Language                                 : Italian
  437. Default                                  : No
  438. Forced                                   : No

  439. Text #20
  440. ID                                       : 28
  441. Format                                   : PGS
  442. Muxing mode                              : zlib
  443. Codec ID                                 : S_HDMV/PGS
  444. Codec ID/Info                            : Picture based subtitle format used on BDs/HD-DVDs
  445. Duration                                 : 1 h 47 min
  446. Bit rate                                 : 24.1 kb/s
  447. Count of elements                        : 2968
  448. Stream size                              : 18.5 MiB (0%)
  449. Title                                    : Korean-PGS
  450. Language                                 : Korean
  451. Default                                  : No
  452. Forced                                   : No

  453. Text #21
  454. ID                                       : 29
  455. Format                                   : PGS
  456. Muxing mode                              : zlib
  457. Codec ID                                 : S_HDMV/PGS
  458. Codec ID/Info                            : Picture based subtitle format used on BDs/HD-DVDs
  459. Duration                                 : 1 h 47 min
  460. Bit rate                                 : 24.5 kb/s
  461. Count of elements                        : 2522
  462. Stream size                              : 18.9 MiB (0%)
  463. Title                                    : Polish-PGS
  464. Language                                 : Polish
  465. Default                                  : No
  466. Forced                                   : No

  467. Text #22
  468. ID                                       : 30
  469. Format                                   : PGS
  470. Muxing mode                              : zlib
  471. Codec ID                                 : S_HDMV/PGS
  472. Codec ID/Info                            : Picture based subtitle format used on BDs/HD-DVDs
  473. Duration                                 : 1 h 47 min
  474. Bit rate                                 : 26.8 kb/s
  475. Count of elements                        : 2522
  476. Stream size                              : 20.6 MiB (0%)
  477. Title                                    : Portuguese-PGS
  478. Language                                 : Portuguese
  479. Default                                  : No
  480. Forced                                   : No

  481. Text #23
  482. ID                                       : 31
  483. Format                                   : PGS
  484. Muxing mode                              : zlib
  485. Codec ID                                 : S_HDMV/PGS
  486. Codec ID/Info                            : Picture based subtitle format used on BDs/HD-DVDs
  487. Duration                                 : 1 h 47 min
  488. Bit rate                                 : 25.9 kb/s
  489. Count of elements                        : 2510
  490. Stream size                              : 19.9 MiB (0%)
  491. Title                                    : Portuguese-FORCED-PGS
  492. Language                                 : Portuguese
  493. Default                                  : No
  494. Forced                                   : No

  495. Text #24
  496. ID                                       : 32
  497. Format                                   : PGS
  498. Muxing mode                              : zlib
  499. Codec ID                                 : S_HDMV/PGS
  500. Codec ID/Info                            : Picture based subtitle format used on BDs/HD-DVDs
  501. Duration                                 : 1 h 47 min
  502. Bit rate                                 : 24.8 kb/s
  503. Count of elements                        : 2520
  504. Stream size                              : 19.1 MiB (0%)
  505. Title                                    : Romanian-PGS
  506. Language                                 : Romanian
  507. Default                                  : No
  508. Forced                                   : No

  509. Text #25
  510. ID                                       : 33
  511. Format                                   : PGS
  512. Muxing mode                              : zlib
  513. Codec ID                                 : S_HDMV/PGS
  514. Codec ID/Info                            : Picture based subtitle format used on BDs/HD-DVDs
  515. Duration                                 : 1 h 47 min
  516. Bit rate                                 : 23.2 kb/s
  517. Count of elements                        : 2524
  518. Stream size                              : 17.9 MiB (0%)
  519. Title                                    : Serbian-PGS
  520. Language                                 : Serbian
  521. Default                                  : No
  522. Forced                                   : No

  523. Text #26
  524. ID                                       : 34
  525. Format                                   : PGS
  526. Muxing mode                              : zlib
  527. Codec ID                                 : S_HDMV/PGS
  528. Codec ID/Info                            : Picture based subtitle format used on BDs/HD-DVDs
  529. Duration                                 : 1 h 47 min
  530. Bit rate                                 : 26.2 kb/s
  531. Count of elements                        : 2540
  532. Stream size                              : 20.2 MiB (0%)
  533. Title                                    : Slovak-PGS
  534. Language                                 : Slovak
  535. Default                                  : No
  536. Forced                                   : No

  537. Text #27
  538. ID                                       : 35
  539. Format                                   : PGS
  540. Muxing mode                              : zlib
  541. Codec ID                                 : S_HDMV/PGS
  542. Codec ID/Info                            : Picture based subtitle format used on BDs/HD-DVDs
  543. Duration                                 : 1 h 47 min
  544. Bit rate                                 : 22.8 kb/s
  545. Count of elements                        : 2518
  546. Stream size                              : 17.6 MiB (0%)
  547. Title                                    : Slovenian-PGS
  548. Language                                 : Slovenian
  549. Default                                  : No
  550. Forced                                   : No

  551. Text #28
  552. ID                                       : 36
  553. Format                                   : PGS
  554. Muxing mode                              : zlib
  555. Codec ID                                 : S_HDMV/PGS
  556. Codec ID/Info                            : Picture based subtitle format used on BDs/HD-DVDs
  557. Duration                                 : 1 h 47 min
  558. Bit rate                                 : 25.9 kb/s
  559. Count of elements                        : 2166
  560. Stream size                              : 19.9 MiB (0%)
  561. Title                                    : Spanish-PGS
  562. Language                                 : Spanish
  563. Default                                  : No
  564. Forced                                   : No

  565. Text #29
  566. ID                                       : 37
  567. Format                                   : PGS
  568. Muxing mode                              : zlib
  569. Codec ID                                 : S_HDMV/PGS
  570. Codec ID/Info                            : Picture based subtitle format used on BDs/HD-DVDs
  571. Duration                                 : 1 h 47 min
  572. Bit rate                                 : 27.1 kb/s
  573. Count of elements                        : 2526
  574. Stream size                              : 20.9 MiB (0%)
  575. Title                                    : Thai-PGS
  576. Language                                 : Thai
  577. Default                                  : No
  578. Forced                                   : No

  579. Text #30
  580. ID                                       : 38
  581. Format                                   : PGS
  582. Muxing mode                              : zlib
  583. Codec ID                                 : S_HDMV/PGS
  584. Codec ID/Info                            : Picture based subtitle format used on BDs/HD-DVDs
  585. Duration                                 : 1 h 47 min
  586. Bit rate                                 : 26.9 kb/s
  587. Count of elements                        : 2518
  588. Stream size                              : 20.7 MiB (0%)
  589. Title                                    : Turkish-PGS
  590. Language                                 : Turkish
  591. Default                                  : No
  592. Forced                                   : No

  593. Menu
  594. 00:00:00.000                             : en:Chapter 01
  595. 00:05:25.908                             : en:Chapter 02
  596. 00:10:36.886                             : en:Chapter 03
  597. 00:16:38.330                             : en:Chapter 04
  598. 00:23:32.994                             : en:Chapter 05
  599. 00:30:25.281                             : en:Chapter 06
  600. 00:39:08.763                             : en:Chapter 07
  601. 00:47:23.549                             : en:Chapter 08
  602. 00:55:04.009                             : en:Chapter 09
  603. 01:01:54.544                             : en:Chapter 10
  604. 01:09:42.386                             : en:Chapter 11
  605. 01:17:41.573                             : en:Chapter 12
  606. 01:21:47.152                             : en:Chapter 13
  607. 01:24:41.367                             : en:Chapter 14
  608. 01:30:23.709                             : en:Chapter 15
  609. 01:40:20.931                             : en:Chapter 16
复制代码


精彩剧照

蓝与黑 Black.and.Blue.2019.1080p.BluRay.REMUX.AVC.DTS-HD.MA.5.1-FGT 24.79GB

蓝与黑 Black.and.Blue.2019.1080p.BluRay.REMUX.AVC.DTS-HD.MA.5.1-FGT 24.79GB

蓝与黑 Black.and.Blue.2019.1080p.BluRay.REMUX.AVC.DTS-HD.MA.5.1-FGT 24.79GB

蓝与黑 Black.and.Blue.2019.1080p.BluRay.REMUX.AVC.DTS-HD.MA.5.1-FGT 24.79GB

蓝与黑 Black.and.Blue.2019.1080p.BluRay.REMUX.AVC.DTS-HD.MA.5.1-FGT 24.79GB

蓝与黑 Black.and.Blue.2019.1080p.BluRay.REMUX.AVC.DTS-HD.MA.5.1-FGT 24.79GB



蓝光高清网提示您 点击下方附件名称 马上开始下载

Black.and.Blue.2019.1080p.BluRay.REMUX.AVC.DTS-HD.MA.5.1-FGT.torrent (62.53 KB, 下载次数: 0)

加入蓝光高清网VIP会员  无限制下载本站所有资源---点此加入

资源下载、资源播放、字幕使用、无法下载等常见问题---点这里

回复

使用道具 举报

精彩评论28

名字给你 发表于 2020-1-14 11:20:35 | 显示全部楼层
哈哈 谢谢 谢谢

加入蓝光高清网VIP会员  无限制下载本站所有资源---点此加入

资源下载、资源播放、字幕使用、无法下载等常见问题---点这里

回复

使用道具 举报

汇网中国 发表于 2020-1-14 11:56:43 | 显示全部楼层
哈哈 谢谢 谢谢

加入蓝光高清网VIP会员  无限制下载本站所有资源---点此加入

资源下载、资源播放、字幕使用、无法下载等常见问题---点这里

回复

使用道具 举报

f78914 发表于 2020-1-14 15:05:48 | 显示全部楼层
不管怎么说就是支持,感谢版主的无私付出

加入蓝光高清网VIP会员  无限制下载本站所有资源---点此加入

资源下载、资源播放、字幕使用、无法下载等常见问题---点这里

回复

使用道具 举报

aids5807 发表于 2020-1-14 15:20:53 | 显示全部楼层
这个帖子不回对不起自己!我想我是一天也不能离开蓝光高清网了

加入蓝光高清网VIP会员  无限制下载本站所有资源---点此加入

资源下载、资源播放、字幕使用、无法下载等常见问题---点这里

回复

使用道具 举报

scott80270 发表于 2020-1-14 15:25:54 | 显示全部楼层
蓝与黑 Black.and.Blue.2019.1080p.BluRay.REMUX.AVC.DTS-HD.MA.5.1-FGT 24.79GB

加入蓝光高清网VIP会员  无限制下载本站所有资源---点此加入

资源下载、资源播放、字幕使用、无法下载等常见问题---点这里

回复

使用道具 举报

torizhao 发表于 2020-1-14 16:01:29 | 显示全部楼层
这个帖子不回对不起自己!我想我是一天也不能离开蓝光高清网了

加入蓝光高清网VIP会员  无限制下载本站所有资源---点此加入

资源下载、资源播放、字幕使用、无法下载等常见问题---点这里

回复

使用道具 举报

MP5Y 发表于 2020-1-14 17:49:09 | 显示全部楼层
下载来看看

加入蓝光高清网VIP会员  无限制下载本站所有资源---点此加入

资源下载、资源播放、字幕使用、无法下载等常见问题---点这里

回复

使用道具 举报

woainisyf1314 发表于 2020-1-14 18:10:03 | 显示全部楼层
不错,支持下楼主

加入蓝光高清网VIP会员  无限制下载本站所有资源---点此加入

资源下载、资源播放、字幕使用、无法下载等常见问题---点这里

回复

使用道具 举报

香客斯 发表于 2020-1-14 18:30:23 | 显示全部楼层
sfweoeroiqwetasd!

加入蓝光高清网VIP会员  无限制下载本站所有资源---点此加入

资源下载、资源播放、字幕使用、无法下载等常见问题---点这里

回复

使用道具 举报

懒得打字嘛,点击右侧快捷回复
您需要登录后才可以回帖 登录 | 立即注册

本版积分规则

关注0

粉丝0

帖子72186

发布主题
最新电影 论坛
本期活动
联系我们
点击这里联系客服

服务时间:
周一到周日8:00-23:30

  • 打开微信扫一扫
    关注公众号

  • 手机QQ扫一扫
    添加客服

Archiver手机版蓝光高清网 ( 渝ICP备18006373号-2 )|网站地图

Powered by Discuz! X3.4  © 2001-2013 Comsenz Inc.