[剧情] 哈丽特 Harriet.2019.1080p.BluRay.x264-GECKOS 9.87GB

[复制链接]
蓝鸟VIP会员 永久VIP 发表于 2020-1-16 17:05:07 | 显示全部楼层 |阅读模式 打印 上一主题 下一主题

马上注册,轻松下载,海量资源,让你轻松玩转社区。

您需要 登录 才可以下载或查看,没有帐号?立即注册

x


译  名 哈丽特 / Freedom Fire / 自由之火
片  名 Harriet
年  代 2019
产  地 美国
类  别 剧情 / 传记 / 历史
语  言 英语
上映日期 2019-09-10(多伦多电影节) / 2019-11-01(美国)
IMDb评分  6.3/10 from 4791 users
IMDb链接  https://www.imdb.com/title/tt4648786
豆瓣评分 6.1/10 from 150 users
豆瓣链接 https://movie.douban.com/subject/26786097/
片  长 125分钟
导  演 卡斯·莱蒙斯 Kasi Lemmons
编  剧 卡斯·莱蒙斯 Kasi Lemmons / 格雷戈里·艾伦·霍华德 Gregory Allen Howard
主  演 辛西娅·艾莉佛 Cynthia Erivo
       乔·阿尔文 Joe Alwyn
       加奈儿·梦奈 Janelle Monáe
       詹妮弗·内特尔斯 Jennifer Nettles
       蒂姆·金尼 Tim Guinee
       瓦妮莎·贝尔·卡洛威 Vanessa Bell Calloway
       克拉克·彼得斯 Clarke Peters
       小莱斯利·奥多姆 Leslie Odom Jr.
       沃迪·科蒂斯·霍尔 Vondie Curtis-Hall
       黛博拉·艾里德 Deborah Ayorinde
       托利·基特尔斯 Tory Kittles
       奥马尔·J·多尔西 Omar J. Dorsey
       米切尔·霍格 Mitchell Hoog
       施奎塔·詹姆斯 Shiquita James
       扎克瑞·莫莫 Zackary Momoh
       阿里娅·布鲁克斯 Aria Brooks
       迈克尔·图尔克 Michael Tourek
       约瑟夫·李·安德森 Joseph Lee Anderson
       皮特·布里斯 Pete Burris
       托马斯·基根 Thomas Keegan


标  签 传记 | 美国 | 女性 | 历史 | 2019 | 剧情 | 自由 | KasiLemmons

简  介  

  乔·阿尔文、小莱斯利·奥多姆将加盟传记影片[哈丽特],先前宣布加盟的卡司包括辛西娅·埃里沃、克拉克·彼得斯等。塞斯·曼恩(《国土安全》)执导。哈丽特·塔布曼生于1822年,原本是生活在马里兰州的黑奴,1849年她逃到北方,不久后加入到帮助奴隶逃亡的美国“地下铁路”中,成为最活跃的领袖之一,多次回到家乡带领其他奴隶逃往北方。南北战争爆发后,塔布曼积极参战,成为北军中为数不多的女性,战后她投身了争取妇女权益的运动。哈丽特也是首位登上美元的女性。影片将于下月在美国弗吉尼亚州开拍。

获奖情况  

  第92届奥斯卡金像奖(2020)
  最佳女主角(提名) 辛西娅·艾莉佛
  最佳原创歌曲(提名) 辛西娅·艾莉佛 / 乔舒亚·布赖恩·坎贝尔

  第77届金球奖(2020)
  电影类 剧情片最佳女主角(提名) 辛西娅·艾莉佛
  电影类 最佳原创歌曲(提名)

  第26届美国演员工会奖(2020)
  电影奖 最佳女主角(提名) 辛西娅·艾莉佛

  第25届美国评论家选择电影奖(2020)
  最佳女主角(提名) 辛西娅·艾莉佛
  最佳歌曲(提名)

  第24届金卫星奖(2020)
  电影部门 剧情片最佳女主角(提名) 辛西娅·艾莉佛
  电影部门 最佳原创配乐(提名)

  第23届好莱坞电影奖(2019)
  年度突破女演员 辛西娅·艾莉佛

  第40届伦敦影评人协会奖(2020)
  年度英国/爱尔兰女演员(提名) 辛西娅·艾莉佛


该资源信息参数
  1. Video
  2. ID                                       : 1
  3. Format                                   : AVC
  4. Format/Info                              : Advanced Video Codec
  5. Format profile                           : High@L4
  6. Format settings                          : CABAC / 5 Ref Frames
  7. Format settings, CABAC                   : Yes
  8. Format settings, Reference frames        : 5 frames
  9. Codec ID                                 : V_MPEG4/ISO/AVC
  10. Duration                                 : 2 h 5 min
  11. Bit rate                                 : 9 750 kb/s
  12. Width                                    : 1 920 pixels
  13. Height                                   : 808 pixels
  14. Display aspect ratio                     : 2.40:1
  15. Frame rate mode                          : Constant
  16. Frame rate                               : 23.976 (24000/1001) FPS
  17. Color space                              : YUV
  18. Chroma subsampling                       : 4:2:0
  19. Bit depth                                : 8 bits
  20. Scan type                                : Progressive
  21. Bits/(Pixel*Frame)                       : 0.262
  22. Stream size                              : 8.52 GiB (87%)
  23. Writing library                          : x264 core 159 r2991 1771b55
  24. Encoding settings                        : cabac=1 / ref=5 / deblock=1:-3:-3 / analyse=0x3:0x113 / me=umh / subme=8 / psy=1 / psy_rd=1.00:0.00 / mixed_ref=1 / me_range=16 / chroma_me=1 / trellis=1 / 8x8dct=1 / cqm=0 / deadzone=21,11 / fast_pskip=1 / chroma_qp_offset=-2 / threads=25 / lookahead_threads=4 / sliced_threads=0 / nr=0 / decimate=1 / interlaced=0 / bluray_compat=0 / constrained_intra=0 / bframes=3 / b_pyramid=2 / b_adapt=1 / b_bias=0 / direct=3 / weightb=1 / open_gop=0 / weightp=2 / keyint=250 / keyint_min=23 / scenecut=40 / intra_refresh=0 / rc_lookahead=50 / rc=2pass / mbtree=1 / bitrate=9750 / ratetol=1.0 / qcomp=0.60 / qpmin=0 / qpmax=69 / qpstep=4 / cplxblur=20.0 / qblur=0.5 / ip_ratio=1.40 / aq=1:1.00
  25. Language                                 : English
  26. Default                                  : Yes
  27. Forced                                   : No

  28. Audio
  29. ID                                       : 2
  30. Format                                   : DTS
  31. Format/Info                              : Digital Theater Systems
  32. Codec ID                                 : A_DTS
  33. Duration                                 : 2 h 5 min
  34. Bit rate mode                            : Constant
  35. Bit rate                                 : 1 509 kb/s
  36. Channel(s)                               : 6 channels
  37. Channel layout                           : C L R Ls Rs LFE
  38. Sampling rate                            : 48.0 kHz
  39. Frame rate                               : 93.750 FPS (512 SPF)
  40. Bit depth                                : 24 bits
  41. Compression mode                         : Lossy
  42. Stream size                              : 1.32 GiB (13%)
  43. Language                                 : English
  44. Default                                  : Yes
  45. Forced                                   : No

  46. Menu
  47. 00:00:00.000                             : en:00:00:00.000
  48. 00:07:19.522                             : en:00:07:19.522
  49. 00:15:38.229                             : en:00:15:38.229
  50. 00:21:44.845                             : en:00:21:44.845
  51. 00:26:02.269                             : en:00:26:02.269
  52. 00:32:32.534                             : en:00:32:32.534
  53. 00:42:15.116                             : en:00:42:15.116
  54. 00:47:42.693                             : en:00:47:42.693
  55. 00:53:37.673                             : en:00:53:37.673
  56. 01:00:14.903                             : en:01:00:14.903
  57. 01:05:27.841                             : en:01:05:27.841
  58. 01:12:32.974                             : en:01:12:32.974
  59. 01:20:03.173                             : en:01:20:03.173
  60. 01:24:47.457                             : en:01:24:47.457
  61. 01:29:36.705                             : en:01:29:36.705
  62. 01:34:13.314                             : en:01:34:13.314
  63. 01:42:48.162                             : en:01:42:48.162
  64. 01:47:58.389                             : en:01:47:58.389
  65. 01:54:02.836                             : en:01:54:02.836
  66. 01:58:13.586                             : en:01:58:13.586
复制代码


精彩剧照




蓝光高清网提示您 点击下方附件名称 马上开始下载



温馨提示:
本站资源优先使用迅雷下载,迅雷会员下载,速度基本可以跑满宽带
如果遇到无资源或者版权问题无法下载,推荐使用115网盘离线下载(点击查看115网盘离线下载教程


  • 该资源需要您回复以后 刷新网页进行下载操作

  • 1、Harriet.2019.1080p.BluRay.x264-GECKOS.torrent 50KB 已下载 1 次

加入蓝光高清网VIP会员  无限制下载本站所有资源---点此加入

资源下载、资源播放、字幕使用、无法下载等常见问题---点这里

回复

使用道具 举报

高级模式
B Color Image Link Quote Code Smilies 上传

本版积分规则

关注0

粉丝0

帖子73929

发布主题
最新电影 论坛
本期活动
联系我们
点击这里联系客服

服务时间:
周一到周日8:00-23:30

  • 打开微信扫一扫
    关注公众号

  • 手机QQ扫一扫
    添加客服

Archiver手机版蓝光高清网 ( 渝ICP备18006373号-2 )|网站地图

Powered by Discuz! X3.4  © 2001-2013 Comsenz Inc.