[纪录片] 恐怖和平 Disturbing.the.Peace.2016.1080p.NF.WEBRip.DD5.1.x264-NTG 4.60GB

[复制链接]
蓝鸟VIP会员 永久VIP 发表于 2020-1-17 19:08:13 | 显示全部楼层 |阅读模式 打印 上一主题 下一主题

马上注册,轻松下载,海量资源,让你轻松玩转社区。

您需要 登录 才可以下载或查看,没有帐号?立即注册

x


译  名 恐怖和平
片  名 Disturbing the Peace
年  代 2016
产  地 以色列 Israel / 美国
类  别 纪录片
语  言 英语
上映日期 2016-03-10
IMDb评分  7.5/10 from 216 users
IMDb链接  https://www.imdb.com/title/tt5503512
豆瓣评分 0/10 from 0 users
豆瓣链接 https://movie.douban.com/subject/27007991/
片  长 83分钟
导  演 Stephen Apkon / 安德鲁·杨 Andrew Young

标  签 纪录片 | 以色列 | 战争 | 英国 | 其它 | 2019 | 美国纪录片 | 美国

简  介  

  DISTURBING THE PEACE is a story of the human potential unleashed when we stop participating in a story that no longer serves us and, with the power of our convictions, take action to create new possibilities. DISTURBING THE PEACE follows former enemy combatants - Israeli soldiers from elite units and Palestinian fighters, many of whom served years in prison - who have joined together to challenge the status quo and say "enough." The film reveals their transformational journeys from soldiers committed to armed battle to nonviolent peace activists, leading to the creation of Combatants for Peace. While based in the Middle East, DISTURBING THE PEACE evokes universal themes relevant to us all and inspires us to become active participants in the creation of our world.


该资源信息参数
  1. Video
  2. ID                                       : 1
  3. Format                                   : AVC
  4. Format/Info                              : Advanced Video Codec
  5. Format profile                           : High@L4
  6. Format settings                          : CABAC / 3 Ref Frames
  7. Format settings, CABAC                   : Yes
  8. Format settings, Reference frames        : 3 frames
  9. Codec ID                                 : V_MPEG4/ISO/AVC
  10. Duration                                 : 1 h 26 min
  11. Bit rate mode                            : Variable
  12. Bit rate                                 : 7 500 kb/s
  13. Maximum bit rate                         : 11.2 Mb/s
  14. Width                                    : 1 920 pixels
  15. Height                                   : 1 080 pixels
  16. Display aspect ratio                     : 16:9
  17. Frame rate mode                          : Constant
  18. Frame rate                               : 23.976 (24000/1001) FPS
  19. Color space                              : YUV
  20. Chroma subsampling                       : 4:2:0
  21. Bit depth                                : 8 bits
  22. Scan type                                : Progressive
  23. Bits/(Pixel*Frame)                       : 0.151
  24. Stream size                              : 4.36 GiB (95%)
  25. Writing library                          : x264 core 148
  26. Encoding settings                        : cabac=1 / ref=3 / deblock=1:0:0 / analyse=0x1:0x111 / me=umh / subme=10 / psy=1 / psy_rd=1.00:0.00 / mixed_ref=1 / me_range=24 / chroma_me=1 / trellis=2 / 8x8dct=0 / cqm=0 / deadzone=21,11 / fast_pskip=1 / chroma_qp_offset=-2 / threads=8 / lookahead_threads=1 / sliced_threads=0 / nr=0 / decimate=1 / interlaced=0 / bluray_compat=0 / stitchable=1 / constrained_intra=0 / bframes=2 / b_pyramid=0 / b_adapt=2 / b_bias=0 / direct=3 / weightb=1 / open_gop=0 / weightp=2 / keyint=48 / keyint_min=25 / scenecut=0 / intra_refresh=0 / rc_lookahead=48 / rc=2pass / mbtree=1 / bitrate=7500 / ratetol=1.0 / qcomp=0.50 / qpmin=6 / qpmax=51 / qpstep=4 / cplxblur=20.0 / qblur=0.5 / vbv_maxrate=11250 / vbv_bufsize=15000 / nal_hrd=vbr / filler=0 / ip_ratio=1.40 / aq=1:1.00
  27. Default                                  : Yes
  28. Forced                                   : No

  29. Audio
  30. ID                                       : 2
  31. Format                                   : AC-3
  32. Format/Info                              : Audio Coding 3
  33. Commercial name                          : Dolby Digital
  34. Codec ID                                 : A_AC3
  35. Duration                                 : 1 h 26 min
  36. Bit rate mode                            : Constant
  37. Bit rate                                 : 384 kb/s
  38. Channel(s)                               : 6 channels
  39. Channel layout                           : L R C LFE Ls Rs
  40. Sampling rate                            : 48.0 kHz
  41. Frame rate                               : 31.250 FPS (1536 SPF)
  42. Bit depth                                : 16 bits
  43. Compression mode                         : Lossy
  44. Stream size                              : 238 MiB (5%)
  45. Title                                    : English
  46. Language                                 : English
  47. Service kind                             : Complete Main
  48. Default                                  : Yes
  49. Forced                                   : No

  50. Text #1
  51. ID                                       : 3
  52. Format                                   : UTF-8
  53. Codec ID                                 : S_TEXT/UTF8
  54. Codec ID/Info                            : UTF-8 Plain Text
  55. Duration                                 : 1 h 21 min
  56. Bit rate                                 : 40 b/s
  57. Count of elements                        : 602
  58. Stream size                              : 24.4 KiB (0%)
  59. Title                                    : Forced
  60. Language                                 : English
  61. Default                                  : Yes
  62. Forced                                   : Yes

  63. Text #2
  64. ID                                       : 4
  65. Format                                   : UTF-8
  66. Codec ID                                 : S_TEXT/UTF8
  67. Codec ID/Info                            : UTF-8 Plain Text
  68. Duration                                 : 1 h 25 min
  69. Bit rate                                 : 71 b/s
  70. Count of elements                        : 1006
  71. Stream size                              : 44.8 KiB (0%)
  72. Language                                 : English
  73. Default                                  : No
  74. Forced                                   : No

  75. Text #3
  76. ID                                       : 5
  77. Format                                   : UTF-8
  78. Codec ID                                 : S_TEXT/UTF8
  79. Codec ID/Info                            : UTF-8 Plain Text
  80. Duration                                 : 1 h 25 min
  81. Bit rate                                 : 75 b/s
  82. Count of elements                        : 1088
  83. Stream size                              : 47.6 KiB (0%)
  84. Title                                    : SDH
  85. Language                                 : English
  86. Default                                  : No
  87. Forced                                   : No

  88. Text #4
  89. ID                                       : 6
  90. Format                                   : UTF-8
  91. Codec ID                                 : S_TEXT/UTF8
  92. Codec ID/Info                            : UTF-8 Plain Text
  93. Duration                                 : 1 h 21 min
  94. Bit rate                                 : 84 b/s
  95. Count of elements                        : 725
  96. Stream size                              : 50.6 KiB (0%)
  97. Language                                 : Arabic
  98. Default                                  : No
  99. Forced                                   : No

  100. Text #5
  101. ID                                       : 7
  102. Format                                   : UTF-8
  103. Codec ID                                 : S_TEXT/UTF8
  104. Codec ID/Info                            : UTF-8 Plain Text
  105. Duration                                 : 1 h 25 min
  106. Bit rate                                 : 105 b/s
  107. Count of elements                        : 1006
  108. Stream size                              : 66.3 KiB (0%)
  109. Language                                 : Bulgarian
  110. Default                                  : No
  111. Forced                                   : No

  112. Text #6
  113. ID                                       : 8
  114. Format                                   : UTF-8
  115. Codec ID                                 : S_TEXT/UTF8
  116. Codec ID/Info                            : UTF-8 Plain Text
  117. Duration                                 : 1 h 21 min
  118. Bit rate                                 : 65 b/s
  119. Count of elements                        : 907
  120. Stream size                              : 39.3 KiB (0%)
  121. Language                                 : Danish
  122. Default                                  : No
  123. Forced                                   : No

  124. Text #7
  125. ID                                       : 9
  126. Format                                   : UTF-8
  127. Codec ID                                 : S_TEXT/UTF8
  128. Codec ID/Info                            : UTF-8 Plain Text
  129. Duration                                 : 1 h 21 min
  130. Bit rate                                 : 71 b/s
  131. Count of elements                        : 906
  132. Stream size                              : 43.2 KiB (0%)
  133. Language                                 : German
  134. Default                                  : No
  135. Forced                                   : No

  136. Text #8
  137. ID                                       : 10
  138. Format                                   : UTF-8
  139. Codec ID                                 : S_TEXT/UTF8
  140. Codec ID/Info                            : UTF-8 Plain Text
  141. Duration                                 : 1 h 21 min
  142. Bit rate                                 : 120 b/s
  143. Count of elements                        : 923
  144. Stream size                              : 72.6 KiB (0%)
  145. Language                                 : Greek
  146. Default                                  : No
  147. Forced                                   : No

  148. Text #9
  149. ID                                       : 11
  150. Format                                   : UTF-8
  151. Codec ID                                 : S_TEXT/UTF8
  152. Codec ID/Info                            : UTF-8 Plain Text
  153. Duration                                 : 1 h 21 min
  154. Bit rate                                 : 66 b/s
  155. Count of elements                        : 908
  156. Stream size                              : 39.9 KiB (0%)
  157. Language                                 : Spanish
  158. Default                                  : No
  159. Forced                                   : No

  160. Text #10
  161. ID                                       : 12
  162. Format                                   : UTF-8
  163. Codec ID                                 : S_TEXT/UTF8
  164. Codec ID/Info                            : UTF-8 Plain Text
  165. Duration                                 : 1 h 21 min
  166. Bit rate                                 : 67 b/s
  167. Count of elements                        : 916
  168. Stream size                              : 40.7 KiB (0%)
  169. Title                                    : European
  170. Language                                 : Spanish
  171. Default                                  : No
  172. Forced                                   : No

  173. Text #11
  174. ID                                       : 13
  175. Format                                   : UTF-8
  176. Codec ID                                 : S_TEXT/UTF8
  177. Codec ID/Info                            : UTF-8 Plain Text
  178. Duration                                 : 1 h 21 min
  179. Bit rate                                 : 66 b/s
  180. Count of elements                        : 905
  181. Stream size                              : 39.7 KiB (0%)
  182. Language                                 : Finnish
  183. Default                                  : No
  184. Forced                                   : No

  185. Text #12
  186. ID                                       : 14
  187. Format                                   : UTF-8
  188. Codec ID                                 : S_TEXT/UTF8
  189. Codec ID/Info                            : UTF-8 Plain Text
  190. Duration                                 : 1 h 21 min
  191. Bit rate                                 : 72 b/s
  192. Count of elements                        : 907
  193. Stream size                              : 43.5 KiB (0%)
  194. Language                                 : French
  195. Default                                  : No
  196. Forced                                   : No

  197. Text #13
  198. ID                                       : 15
  199. Format                                   : UTF-8
  200. Codec ID                                 : S_TEXT/UTF8
  201. Codec ID/Info                            : UTF-8 Plain Text
  202. Duration                                 : 1 h 21 min
  203. Bit rate                                 : 83 b/s
  204. Count of elements                        : 741
  205. Stream size                              : 49.9 KiB (0%)
  206. Language                                 : Hebrew
  207. Default                                  : No
  208. Forced                                   : No

  209. Text #14
  210. ID                                       : 16
  211. Format                                   : UTF-8
  212. Codec ID                                 : S_TEXT/UTF8
  213. Codec ID/Info                            : UTF-8 Plain Text
  214. Duration                                 : 1 h 21 min
  215. Bit rate                                 : 65 b/s
  216. Count of elements                        : 907
  217. Stream size                              : 39.5 KiB (0%)
  218. Language                                 : Italian
  219. Default                                  : No
  220. Forced                                   : No

  221. Text #15
  222. ID                                       : 17
  223. Format                                   : UTF-8
  224. Codec ID                                 : S_TEXT/UTF8
  225. Codec ID/Info                            : UTF-8 Plain Text
  226. Duration                                 : 1 h 21 min
  227. Bit rate                                 : 63 b/s
  228. Count of elements                        : 860
  229. Stream size                              : 38.0 KiB (0%)
  230. Language                                 : Japanese
  231. Default                                  : No
  232. Forced                                   : No

  233. Text #16
  234. ID                                       : 18
  235. Format                                   : UTF-8
  236. Codec ID                                 : S_TEXT/UTF8
  237. Codec ID/Info                            : UTF-8 Plain Text
  238. Duration                                 : 1 h 21 min
  239. Bit rate                                 : 69 b/s
  240. Count of elements                        : 932
  241. Stream size                              : 42.0 KiB (0%)
  242. Language                                 : Korean
  243. Default                                  : No
  244. Forced                                   : No

  245. Text #17
  246. ID                                       : 19
  247. Format                                   : UTF-8
  248. Codec ID                                 : S_TEXT/UTF8
  249. Codec ID/Info                            : UTF-8 Plain Text
  250. Duration                                 : 1 h 21 min
  251. Bit rate                                 : 63 b/s
  252. Count of elements                        : 906
  253. Stream size                              : 38.4 KiB (0%)
  254. Language                                 : Norwegian Bokmal
  255. Default                                  : No
  256. Forced                                   : No

  257. Text #18
  258. ID                                       : 20
  259. Format                                   : UTF-8
  260. Codec ID                                 : S_TEXT/UTF8
  261. Codec ID/Info                            : UTF-8 Plain Text
  262. Duration                                 : 1 h 21 min
  263. Bit rate                                 : 66 b/s
  264. Count of elements                        : 908
  265. Stream size                              : 40.1 KiB (0%)
  266. Language                                 : Dutch
  267. Default                                  : No
  268. Forced                                   : No

  269. Text #19
  270. ID                                       : 21
  271. Format                                   : UTF-8
  272. Codec ID                                 : S_TEXT/UTF8
  273. Codec ID/Info                            : UTF-8 Plain Text
  274. Duration                                 : 1 h 21 min
  275. Bit rate                                 : 66 b/s
  276. Count of elements                        : 920
  277. Stream size                              : 39.7 KiB (0%)
  278. Language                                 : Polish
  279. Default                                  : No
  280. Forced                                   : No

  281. Text #20
  282. ID                                       : 22
  283. Format                                   : UTF-8
  284. Codec ID                                 : S_TEXT/UTF8
  285. Codec ID/Info                            : UTF-8 Plain Text
  286. Duration                                 : 1 h 21 min
  287. Bit rate                                 : 71 b/s
  288. Count of elements                        : 905
  289. Stream size                              : 42.7 KiB (0%)
  290. Language                                 : Portuguese
  291. Default                                  : No
  292. Forced                                   : No

  293. Text #21
  294. ID                                       : 23
  295. Format                                   : UTF-8
  296. Codec ID                                 : S_TEXT/UTF8
  297. Codec ID/Info                            : UTF-8 Plain Text
  298. Duration                                 : 1 h 21 min
  299. Bit rate                                 : 68 b/s
  300. Count of elements                        : 906
  301. Stream size                              : 40.8 KiB (0%)
  302. Title                                    : Brazilian
  303. Language                                 : Portuguese
  304. Default                                  : No
  305. Forced                                   : No

  306. Text #22
  307. ID                                       : 24
  308. Format                                   : UTF-8
  309. Codec ID                                 : S_TEXT/UTF8
  310. Codec ID/Info                            : UTF-8 Plain Text
  311. Duration                                 : 1 h 21 min
  312. Bit rate                                 : 70 b/s
  313. Count of elements                        : 908
  314. Stream size                              : 42.4 KiB (0%)
  315. Language                                 : Romanian
  316. Default                                  : No
  317. Forced                                   : No

  318. Text #23
  319. ID                                       : 25
  320. Format                                   : UTF-8
  321. Codec ID                                 : S_TEXT/UTF8
  322. Codec ID/Info                            : UTF-8 Plain Text
  323. Duration                                 : 1 h 21 min
  324. Bit rate                                 : 66 b/s
  325. Count of elements                        : 905
  326. Stream size                              : 40.2 KiB (0%)
  327. Language                                 : Swedish
  328. Default                                  : No
  329. Forced                                   : No

  330. Text #24
  331. ID                                       : 26
  332. Format                                   : UTF-8
  333. Codec ID                                 : S_TEXT/UTF8
  334. Codec ID/Info                            : UTF-8 Plain Text
  335. Duration                                 : 1 h 21 min
  336. Bit rate                                 : 158 b/s
  337. Count of elements                        : 923
  338. Stream size                              : 95.3 KiB (0%)
  339. Language                                 : Thai
  340. Default                                  : No
  341. Forced                                   : No

  342. Text #25
  343. ID                                       : 27
  344. Format                                   : UTF-8
  345. Codec ID                                 : S_TEXT/UTF8
  346. Codec ID/Info                            : UTF-8 Plain Text
  347. Duration                                 : 1 h 21 min
  348. Bit rate                                 : 69 b/s
  349. Count of elements                        : 913
  350. Stream size                              : 42.0 KiB (0%)
  351. Language                                 : Turkish
  352. Default                                  : No
  353. Forced                                   : No

  354. Text #26
  355. ID                                       : 28
  356. Format                                   : UTF-8
  357. Codec ID                                 : S_TEXT/UTF8
  358. Codec ID/Info                            : UTF-8 Plain Text
  359. Duration                                 : 1 h 21 min
  360. Bit rate                                 : 57 b/s
  361. Count of elements                        : 923
  362. Stream size                              : 34.5 KiB (0%)
  363. Title                                    : Simplified
  364. Language                                 : Chinese
  365. Default                                  : No
  366. Forced                                   : No

  367. Text #27
  368. ID                                       : 29
  369. Format                                   : UTF-8
  370. Codec ID                                 : S_TEXT/UTF8
  371. Codec ID/Info                            : UTF-8 Plain Text
  372. Duration                                 : 1 h 21 min
  373. Bit rate                                 : 50 b/s
  374. Count of elements                        : 923
  375. Stream size                              : 30.2 KiB (0%)
  376. Title                                    : Traditional
  377. Language                                 : Chinese
  378. Default                                  : No
  379. Forced                                   : No
复制代码


精彩剧照




蓝光高清网提示您 点击下方附件名称 马上开始下载



温馨提示:
本站资源优先使用迅雷下载,迅雷会员下载,速度基本可以跑满宽带
如果遇到无资源或者版权问题无法下载,推荐使用115网盘离线下载(点击查看115网盘离线下载教程


  • 该资源需要您回复以后 刷新网页进行下载操作

  • 1、Disturbing.the.Peace.2016.1080p.NF.WEBRip.DD5.1.x264-NTG.torrent 47KB 已下载 0 次

加入蓝光高清网VIP会员  无限制下载本站所有资源---点此加入

资源下载、资源播放、字幕使用、无法下载等常见问题---点这里

回复

使用道具 举报

精彩评论9

sean.liu 发表于 2020-1-17 19:50:56 | 显示全部楼层
这个帖子不回对不起自己!我想我是一天也不能离开蓝光高清网了

加入蓝光高清网VIP会员  无限制下载本站所有资源---点此加入

资源下载、资源播放、字幕使用、无法下载等常见问题---点这里

回复

使用道具 举报

xiacg 发表于 2020-1-17 19:50:56 | 显示全部楼层
楼主幸苦了

加入蓝光高清网VIP会员  无限制下载本站所有资源---点此加入

资源下载、资源播放、字幕使用、无法下载等常见问题---点这里

回复

使用道具 举报

arql 发表于 2020-1-17 20:16:47 | 显示全部楼层
楼主发贴辛苦了,谢谢楼主分享!

加入蓝光高清网VIP会员  无限制下载本站所有资源---点此加入

资源下载、资源播放、字幕使用、无法下载等常见问题---点这里

回复

使用道具 举报

micle 发表于 2020-1-17 21:43:41 | 显示全部楼层
感谢楼主的无私分享!

加入蓝光高清网VIP会员  无限制下载本站所有资源---点此加入

资源下载、资源播放、字幕使用、无法下载等常见问题---点这里

回复

使用道具 举报

kFpDCecp 发表于 2020-1-17 21:48:50 | 显示全部楼层
好资源 收藏了 谢谢分享

加入蓝光高清网VIP会员  无限制下载本站所有资源---点此加入

资源下载、资源播放、字幕使用、无法下载等常见问题---点这里

回复

使用道具 举报

charles1121 发表于 2020-1-18 06:16:02 | 显示全部楼层
找了好久 终于找到了  谢谢分享

加入蓝光高清网VIP会员  无限制下载本站所有资源---点此加入

资源下载、资源播放、字幕使用、无法下载等常见问题---点这里

回复

使用道具 举报

99liang 发表于 2020-1-18 06:21:04 | 显示全部楼层
谢谢分享

加入蓝光高清网VIP会员  无限制下载本站所有资源---点此加入

资源下载、资源播放、字幕使用、无法下载等常见问题---点这里

回复

使用道具 举报

xuyizhangzhuang 发表于 2020-1-18 06:26:14 | 显示全部楼层
恐怖和平 Disturbing.the.Peace.2016.1080p.NF.WEBRip.DD5.1.x264-NTG 4.60GB

加入蓝光高清网VIP会员  无限制下载本站所有资源---点此加入

资源下载、资源播放、字幕使用、无法下载等常见问题---点这里

回复

使用道具 举报

sweedoo 发表于 2020-1-18 07:53:41 | 显示全部楼层
谢谢版主 希望坚持下去 好资源

加入蓝光高清网VIP会员  无限制下载本站所有资源---点此加入

资源下载、资源播放、字幕使用、无法下载等常见问题---点这里

回复

使用道具 举报

高级模式
B Color Image Link Quote Code Smilies 上传

本版积分规则

关注0

粉丝0

帖子73929

发布主题
最新电影 论坛
本期活动
联系我们
点击这里联系客服

服务时间:
周一到周日8:00-23:30

  • 打开微信扫一扫
    关注公众号

  • 手机QQ扫一扫
    添加客服

Archiver手机版蓝光高清网 ( 渝ICP备18006373号-2 )|网站地图

Powered by Discuz! X3.4  © 2001-2013 Comsenz Inc.