[惊悚] 彼岸岛 Deluxe Nirvana.Island.The.Last.47.Days.2016.JAPANESE.1080p.BluRay.x264.DTS-iKiW 10.99GB

[复制链接]
蓝鸟 发表于 2020-1-20 23:18:51 | 显示全部楼层 |阅读模式 打印 上一主题 下一主题
[attachimg]-2[/attachimg]

译  名 彼岸岛 Deluxe / Higanjima: Deluxe
片  名 彼岸島 デラックス
年  代 2016
产  地 日本
类  别 惊悚
语  言 日语
上映日期 2016-10-15(日本)
IMDb评分  5.3/10 from 43 users
IMDb链接  https://www.imdb.com/title/tt5238370
豆瓣评分 4.4/10 from 371 users
豆瓣链接 https://movie.douban.com/subject/25961123/
导  演 渡边武 Takeshi Watanabe
编  剧 佐藤佐吉 Sakichi Sat? / 伊藤秀裕
主  演 白石隼也 Shun"ya Shiraishi
       铃木亮平 Ryohei Suzuki
       樱井美南 Minami Sakurai
       石桥莲司 Renji Ishibashi
       远藤雄弥 Yuya Endo
       阿部翔平
       森冈龙 Ry? Morioka
       栗原类 Louis Kurihara
       佐藤めぐみ
       水崎绫女 Ayame Misaki
       藤重政孝
       上間凜子
       高野人母美
       柳ゆり菜


标  签 日本 | 惊悚 | 彼岸島 | 日本电影 | 恐怖 | 漫画改编 | 2016 | 奇幻

简  介  

  无人生还的“彼岸島”,残留着吸血鬼的传说。这个岛禁断的封印被解开,岛上出现了吸血鬼、邪鬼以及巨大的异样妖怪,岛民迎来了危机状况。明为了寻找失踪的哥哥的笃,和伙伴们一起前往了这座岛。明一行人一起战斗抵抗妖怪……


该资源信息参数
  1. Video
  2. ID                                       : 1
  3. Format                                   : AVC
  4. Format/Info                              : Advanced Video Codec
  5. Format profile                           : High@L4
  6. Format settings                          : CABAC / 4 Ref Frames
  7. Format settings, CABAC                   : Yes
  8. Format settings, Reference frames        : 4 frames
  9. Codec ID                                 : V_MPEG4/ISO/AVC
  10. Duration                                 : 1 h 57 min
  11. Bit rate                                 : 13.0 Mb/s
  12. Width                                    : 1 920 pixels
  13. Height                                   : 1 036 pixels
  14. Display aspect ratio                     : 1.85:1
  15. Frame rate mode                          : Constant
  16. Frame rate                               : 23.976 (24000/1001) FPS
  17. Color space                              : YUV
  18. Chroma subsampling                       : 4:2:0
  19. Bit depth                                : 8 bits
  20. Scan type                                : Progressive
  21. Bits/(Pixel*Frame)                       : 0.272
  22. Stream size                              : 10.6 GiB (97%)
  23. Writing library                          : x264 core 129 r2245+704+36 8e61944 tMod+MixAQ [High@L4:2:0 X86_64]
  24. Encoding settings                        : cabac=1 / ref=4 / deblock=1:-3:-3 / analyse=0x3:0x133 / me=umh / subme=11 / psy=1 / fade_compensate=0.00 / psy_rd=1.05:0.10 / mixed_ref=1 / me_range=32 / chroma_me=1 / trellis=2 / 8x8dct=1 / cqm=0 / deadzone=21,11 / fast_pskip=0 / chroma_qp_offset=-3 / threads=18 / lookahead_threads=3 / sliced_threads=0 / nr=0 / decimate=0 / interlaced=0 / bluray_compat=0 / constrained_intra=0 / fgo=0 / bframes=10 / b_pyramid=2 / b_adapt=2 / b_bias=0 / direct=3 / weightb=1 / open_gop=0 / weightp=2 / keyint=250 / keyint_min=23 / scenecut=40 / intra_refresh=0 / rc_lookahead=80 / rc=2pass / mbtree=1 / bitrate=12956 / ratetol=1.0 / qcomp=0.70 / qpmin=0 / qpmax=69 / qpstep=4 / cplxblur=20.0 / qblur=0.5 / ip_ratio=1.40 / aq=1 / aq-strength=0.85 / aq-sensitivity=10.00 / aq-ifactor=1.00 / aq-pfactor=1.00 / aq-bfactor=1.00 / aq2=0
  25. Language                                 : Japanese
  26. Default                                  : Yes
  27. Forced                                   : No

  28. Audio
  29. ID                                       : 2
  30. Format                                   : AC-3
  31. Format/Info                              : Audio Coding 3
  32. Commercial name                          : Dolby Digital
  33. Codec ID                                 : A_AC3
  34. Duration                                 : 1 h 57 min
  35. Bit rate mode                            : Constant
  36. Bit rate                                 : 448 kb/s
  37. Channel(s)                               : 6 channels
  38. Channel layout                           : L R C LFE Ls Rs
  39. Sampling rate                            : 48.0 kHz
  40. Frame rate                               : 31.250 FPS (1536 SPF)
  41. Bit depth                                : 16 bits
  42. Compression mode                         : Lossy
  43. Stream size                              : 376 MiB (3%)
  44. Language                                 : Japanese
  45. Service kind                             : Complete Main
  46. Default                                  : Yes
  47. Forced                                   : No

  48. Text #1
  49. ID                                       : 3
  50. Format                                   : UTF-8
  51. Codec ID                                 : S_TEXT/UTF8
  52. Codec ID/Info                            : UTF-8 Plain Text
  53. Duration                                 : 1 h 50 min
  54. Bit rate                                 : 16 b/s
  55. Count of elements                        : 808
  56. Stream size                              : 13.0 KiB (0%)
  57. Language                                 : English
  58. Default                                  : Yes
  59. Forced                                   : No

  60. Text #2
  61. ID                                       : 4
  62. Format                                   : ASS
  63. Codec ID                                 : S_TEXT/ASS
  64. Codec ID/Info                            : Advanced Sub Station Alpha
  65. Duration                                 : 1 h 50 min
  66. Bit rate                                 : 49 b/s
  67. Count of elements                        : 881
  68. Compression mode                         : Lossless
  69. Stream size                              : 40.5 KiB (0%)
  70. Language                                 : Chinese
  71. Default                                  : No
  72. Forced                                   : No

  73. Menu
  74. 00:00:00.000                             : en:00:00:00.000
  75. 00:10:56.989                             : en:00:10:56.989
  76. 00:25:42.457                             : en:00:25:42.457
  77. 00:39:22.359                             : en:00:39:22.359
  78. 00:50:10.132                             : en:00:50:10.132
  79. 01:06:54.176                             : en:01:06:54.176
  80. 01:21:06.319                             : en:01:21:06.319
  81. 01:46:12.991                             : en:01:46:12.991
  82. 01:57:20.533                             : en:01:57:20.533
复制代码


精彩剧照

彼岸岛 Deluxe Nirvana.Island.The.Last.47.Days.2016.JAPANESE.1080p.BluRay.x264.DTS-iKiW 10.99GB

彼岸岛 Deluxe Nirvana.Island.The.Last.47.Days.2016.JAPANESE.1080p.BluRay.x264.DTS-iKiW 10.99GB

彼岸岛 Deluxe Nirvana.Island.The.Last.47.Days.2016.JAPANESE.1080p.BluRay.x264.DTS-iKiW 10.99GB

彼岸岛 Deluxe Nirvana.Island.The.Last.47.Days.2016.JAPANESE.1080p.BluRay.x264.DTS-iKiW 10.99GB

彼岸岛 Deluxe Nirvana.Island.The.Last.47.Days.2016.JAPANESE.1080p.BluRay.x264.DTS-iKiW 10.99GB

彼岸岛 Deluxe Nirvana.Island.The.Last.47.Days.2016.JAPANESE.1080p.BluRay.x264.DTS-iKiW 10.99GB



蓝光高清网提示您 点击下方附件名称 马上开始下载

Nirvana.Island.The.Last.47.Days.2016.JAPANESE.1080p.BluRay.x264.DTS-iKiW.torrent 
         (55.53 KB    阅读权限: 0)
加入蓝光高清网VIP会员  无限制下载本站所有资源---点这里

资源下载、资源播放、字幕使用、无法下载等常见问题---点这里
回复

使用道具 举报

精彩评论133

michaellai 发表于 2020-1-21 06:45:50 | 显示全部楼层
路过,学习下
回复

使用道具 举报

lilili0068 发表于 2020-1-21 07:06:28 | 显示全部楼层
学习了,谢谢分享、、、
回复

使用道具 举报

cwm2498 发表于 2020-1-21 07:31:41 | 显示全部楼层
哈哈 谢谢 谢谢
回复

使用道具 举报

vinesea97 发表于 2020-1-21 08:07:58 | 显示全部楼层
楼主,大恩不言谢了!
回复

使用道具 举报

ekin5 发表于 2020-1-21 08:49:10 | 显示全部楼层
还是蓝光看起带劲 音效爆棚
回复

使用道具 举报

szw2785833 发表于 2020-1-21 09:09:52 | 显示全部楼层
好好 学习了 确实不错
回复

使用道具 举报

simankong 发表于 2020-1-21 09:30:04 | 显示全部楼层
楼主幸苦了
回复

使用道具 举报

qx123 发表于 2020-1-21 09:35:12 | 显示全部楼层
楼主,我太崇拜你了!
回复

使用道具 举报

覃世龙 发表于 2020-1-21 09:55:33 | 显示全部楼层
楼主,我太崇拜你了!
回复

使用道具 举报

您需要登录后才可以回帖 登录 | 立即注册

本版积分规则

关注0

粉丝1

帖子89666

发布主题
最新电影 论坛
本期活动
联系我们
点击这里联系客服

服务时间:
周一到周日8:00-23:30

  • 打开微信扫一扫
    关注公众号

  • 手机QQ扫一扫
    添加客服

手机版蓝光高清网 |网站地图

Powered by Discuz! X3.4 Licensed  © 2001-2013 Comsenz Inc.