开通会员
全站资源畅享下载
4k原盘抢先下载
免高清币下载
会员用户组特权
开通会员
上传
收藏
首页
开启左侧

加勒比海盗3:世界的尽头4K Pirates.of.the.Caribbean.At.Worlds.End.2007.iNTERNAL.HDR.2160p.WEB.H265-19.58 GB

[复制链接]
4k演示 发表于 2020-2-7 13:47:50 | 显示全部楼层 |阅读模式 打印 上一主题 下一主题

加勒比海盗3:世界的尽头(上映)

主演约翰尼·德普 / 杰弗里·拉什 / 奥兰多·布鲁姆 / 凯拉·奈特莉 / 周润发
导演戈尔·维宾斯基
类型动作 奇幻 冒险 
地区美国 
片长168分钟
画质4K HDR 原盘
音轨 
评分豆瓣8.2分
电影【加勒比海盗3:世界的尽头】原盘信息
 

加入蓝光高清网,轻松下载最新4k资源

您需要 登录 才可以下载或查看,没有帐号?立即注册

x
简       介
2 u& J" ]: N+ J. k9 i  _: E' k9 C; M/ K8 H; w  x/ v2 L
  被大章鱼吞下去的杰克船长(强尼·戴普)进入了戴维·琼斯控制的“死界”——世界的尽头。为了拯救杰克,威尔·特纳(奥兰多·布鲁姆)、伊丽莎白(凯拉·奈特莉)和女巫等一行人也来到了“死界”。. l  j* v. _! V/ w
  找到杰克,他们一行人解开迷咒,逃出了世界尽头。而此时狡猾的卡特勒·贝凯特(汤姆·霍兰德)已经得到了戴维·琼斯(比尔·奈伊)的心脏,由此挟持戴维·琼斯,掌控所有的公海海盗,为东印度公司攫取利益。为了应对危难,各地海盗头目秘密集会,展开是否释放女海神,杀掉戴维·琼斯的争论。
; t* i; B& j5 `  x) j  J8 d- t  原来女海神正是戴维·琼斯的旧情人,两人之间的微妙关系,成了双方交锋的关键。在平静的海面上,风雨降将至,最终的对决即将展开。每个人面临着怎样的命运?当最后的审判结束,大海能否重归往日的宁静?
/ u* m: B% _9 p0 R. k% n2 I' V2 r+ D

4 n1 ~8 m5 V$ y, W( o. Y! p5 X2 I  ~7 k

; @4 O! P6 L, b* L8 S影片参数
7 L! o8 ~! y- @5 I* d) }, l  `! L+ M" G  e6 k
加勒比海盜:魔盜王终极之战(港) / 神鬼奇航:世界的尽头(台) / 加勒比海盗3:死亡荣誉 / Pirates 3/加勒比海盗3:世界的尽头4K Pirates.of.the.Caribbean.At.Worlds.End.2007.iNTERNAL.HDR.2160p.WEB.H265电影信息
& y' j; f' n$ H) }Video# K; x! J/ R, ]0 i& m2 C
ID : 1
4 r. ]% y# ~7 O' cFormat : HEVC, E- Z  o6 F& D9 v0 A) ?$ f
Format/Info : High Efficiency Video Coding
' Q+ @" ]4 C" `$ T. d/ N; YFormat profile : Main 10@L5@High: e3 h! H/ E6 R
Codec ID : V_MPEGH/ISO/HEVC
, F# V  q- b' bDuration : 2 h 48 min
, m. s, O7 @, mBit rate : 16.4 Mb/s/ z1 H$ J* g7 _' S' g
Width : 3 840 pixels. \# Q" l) J4 H& ?
Height : 2 160 pixels
  q, S$ Y8 `, Q9 m4 pDisplay aspect ratio : 16:9+ M# ?: d, ]& M" p5 y) G. |
Frame rate mode : Constant
1 O2 r: `! Z: _3 v6 `& Z& d1 HFrame rate : 23.976 (24000/1001) FPS
# D: T/ y( W9 n! NColor space : YUV. l7 f, M# N' T& V+ ~% q+ m
Chroma subsampling : 4:2:03 a4 W$ t( t2 ^7 z' ~, q" o8 @: e( i4 X
Bit depth : 10 bits' i) v# z' E, ]5 d2 Y  [: Q
Bits/(Pixel*Frame) : 0.082- }5 p9 i" Z+ E
Stream size : 19.3 GiB (98%)
! _- E! ?' y6 Z& S7 fDefault : Yes
9 p8 c, c" f7 N! xForced : No
" z9 v2 V* I" DColor range : Limited
4 K# }7 x' W  J0 T- i# f7 Q8 G# d. E. IColor primaries : BT.2020
# ?! Z9 x! n' b3 G+ fTransfer characteristics : PQ
: p( d: G8 O- C( W( J1 QMatrix coefficients : BT.2020 non-constant7 o, I# j: R- w* i  X

* ~4 O9 \1 [, @3 P3 fAudio
. Y8 s# n$ ^. d' Z) SID : 2
1 w/ [" |) x5 r9 G+ Z3 GFormat : E-AC-31 `  c8 u, P  P" w* z( w
Format/Info : Enhanced AC-3
* h+ E7 \0 ]) ^9 m! {$ u! qCommercial name : Dolby Digital Plus6 e9 o% i+ M/ ~# B# p) D
Codec ID : A_EAC3
2 C7 i+ |5 V- E; e5 U! J; k0 R: NDuration : 2 h 48 min
8 P0 d( v. s5 F' E. d$ V* sBit rate mode : Constant  b+ E4 W' f) ]) Z: E( Z+ k
Bit rate : 256 kb/s
2 v: S) D/ [6 l1 o2 B/ eChannel(s) : 6 channels
) ^$ ~3 O' P- n& y+ a: ~, tChannel layout : L R C LFE Ls Rs5 I1 w) H: |7 f6 x
Sampling rate : 48.0 kHz
: |% V! S% m6 j& ~9 c! e- DFrame rate : 31.250 FPS (1536 SPF)4 f/ @: z3 S- \/ m5 L
Compression mode : Lossy
) }: Z0 D! H7 K7 P/ y) vStream size : 309 MiB (2%)
( p" P" n# e; E. ?. LTitle : English" _" g% B- b0 p3 `7 C' K
Language : English
2 S6 E+ d: f- [) P& @. UService kind : Complete Main
% O! {0 U" ~3 vDefault : Yes% e9 a! N9 r0 j- Q1 m
Forced : No5 [" q+ r( f* A  X& u# ]  b. K
2 A4 P0 C9 ?0 j' a  ?

, C: U9 M, l9 }( S, }精彩剧照
  t. a3 n0 E/ f$ Y' r8 F' t
/ Y. `5 T: T; }. K! ~
3 k  v; d. H2 u2 t

加勒比海盗3:世界的尽头4K Pirates.of.the.Caribbean.At.Worlds.End.2007.iNTERNAL.HDR.2160p.WEB.H265-19 ...

加勒比海盗3:世界的尽头4K Pirates.of.the.Caribbean.At.Worlds.End.2007.iNTERNAL.HDR.2160p.WEB.H265-19 ...

  @% a8 V* Q& G( `/ h0 e/ D, d3 n( d' Z7 m) j
, j6 {0 T% z  _6 N  a
蓝光高清网提示您  点击下方附件名称  马上开始下载* ?' E6 K* K: E  r: T( W  w9 U
2 i; m: n4 Z& _8 Y, g( v  T: Z
加勒比海盜:魔盜王终极之战(港) / 神鬼奇航:世界的尽头(台) / 加勒比海盗3:死亡荣誉 / Pirates 3/加勒比海盗3:世界的尽头4K Pirates.of.the.Caribbean.At.Worlds.End.2007.iNTERNAL.HDR.2160p.WEB.H265电影下载+ [9 S2 ?, R; Y( a3 a
3 D  {$ @2 e8 |! U5 {6 G
加勒比海盗3:世界的尽头4K Pirates.of.the.Caribbean.At.Worlds.End.2007.iNTERNAL.HDR.2160p.WEB.H265【19.58 GB】( S7 X. T9 ~. |6 o9 u$ a- M0 ~
& r, `; s( }! R/ c2 o
加勒比海盗3:世界的尽头4K Pirates.of.the.Caribbean.At.Worlds.End.2007.iNT.torren.torrent (98.55 KB, 下载次数: 33)
回复

使用道具 举报

 

精彩评论5

正序浏览
kvxqewf 发表于 2020-2-7 14:01:56 | 显示全部楼层
 
非常感谢蓝光高清网给大家的享乐4k,祝蓝光高清网越办越好!
回复

使用道具 举报

 
wangfeide4k 发表于 2020-2-8 04:13:12 | 显示全部楼层
 
4444444444444
回复

使用道具 举报

 
大象门门 发表于 2020-2-13 09:40:04 | 显示全部楼层
 
经典的片子一直想收场的。。。。: J2 f9 p* H, J% z
回复

使用道具 举报

 
guoshusheng888 发表于 2020-2-17 13:15:43 | 显示全部楼层
 
谢谢楼主分享!
回复

使用道具 举报

 
everlushen 发表于 2020-4-15 12:03:39 | 显示全部楼层
 
非常感谢蓝光高清网分享的各种知识和资源,祝蓝光高清网越来越好
回复

使用道具 举报

 
您需要登录后才可以回帖 登录 | 立即注册

本版积分规则

0关注

0粉丝

741帖子

  • 版块推荐
  • 百宝箱

电影推荐

更多+

热门电影

更多+

关注我们:微信服务号

官方微信

手机版

蓝光高清网

专注4k电影、4k视频、VR视频、高清电影、蓝光原盘资源

本站内容部分由用户自主分享和转载自互联网,转载目的在于传递更多信息,并不代表本网赞同其观点和对其真实性负责。

如有侵权、违反国家法律政策行为,请联系我们,我们会第一时间及时清除和处理!

举报反馈邮箱:lanniao@1080pro.net

Copyright   ©2019-2020  蓝光高清网    |网站地图