开通会员
全站资源畅享下载
4k原盘抢先下载
免高清币下载
会员用户组特权
开通会员
上传
收藏
首页
开启左侧

加勒比海盗3:世界的尽头4K Pirates.of.the.Caribbean.At.Worlds.End.2007.iNTERNAL.HDR.2160p.WEB.H265-19.58 GB

[复制链接]
4k演示 发表于 2020-2-7 13:47:50 | 显示全部楼层 |阅读模式 打印 上一主题 下一主题

加勒比海盗3:世界的尽头(上映)

主演约翰尼·德普 / 杰弗里·拉什 / 奥兰多·布鲁姆 / 凯拉·奈特莉 / 周润发
导演戈尔·维宾斯基
类型动作 奇幻 冒险 
地区美国 
片长168分钟
画质4K HDR 原盘
音轨 
评分豆瓣8.2分
电影【加勒比海盗3:世界的尽头】原盘信息
 

加入蓝光高清网,轻松下载最新4k资源

您需要 登录 才可以下载或查看,没有帐号?立即注册

x
简       介) N  N8 f! U# e( |
, H0 M* r! g, r/ W  M3 `, f4 \
  被大章鱼吞下去的杰克船长(强尼·戴普)进入了戴维·琼斯控制的“死界”——世界的尽头。为了拯救杰克,威尔·特纳(奥兰多·布鲁姆)、伊丽莎白(凯拉·奈特莉)和女巫等一行人也来到了“死界”。
" m; t  U( }4 Z  i  M( _. k% @$ U  找到杰克,他们一行人解开迷咒,逃出了世界尽头。而此时狡猾的卡特勒·贝凯特(汤姆·霍兰德)已经得到了戴维·琼斯(比尔·奈伊)的心脏,由此挟持戴维·琼斯,掌控所有的公海海盗,为东印度公司攫取利益。为了应对危难,各地海盗头目秘密集会,展开是否释放女海神,杀掉戴维·琼斯的争论。
$ T3 `5 m6 G0 N* Q) p* g2 s+ N* R  原来女海神正是戴维·琼斯的旧情人,两人之间的微妙关系,成了双方交锋的关键。在平静的海面上,风雨降将至,最终的对决即将展开。每个人面临着怎样的命运?当最后的审判结束,大海能否重归往日的宁静?1 U7 B4 ?) I) \9 x' m! E/ D

2 O6 D# R% k/ h* J+ `
, B9 K& \$ w% u
% W3 O9 t: U. U! {' r2 P- W0 A5 D; ?
) N- r7 e4 c6 p8 t' S
影片参数
. T/ H1 e1 }3 M: S/ u1 ~* ~9 ~3 A: X
加勒比海盜:魔盜王终极之战(港) / 神鬼奇航:世界的尽头(台) / 加勒比海盗3:死亡荣誉 / Pirates 3/加勒比海盗3:世界的尽头4K Pirates.of.the.Caribbean.At.Worlds.End.2007.iNTERNAL.HDR.2160p.WEB.H265电影信息7 ^+ @) I0 E/ f1 [
Video- e8 \$ K$ j6 S; U) N
ID : 1( d; S8 p% y4 W' B7 \/ F' d
Format : HEVC# s- c* j- {3 j+ o; e
Format/Info : High Efficiency Video Coding3 ]: H+ E1 [* b9 G
Format profile : Main 10@L5@High9 o5 D  j( N8 B2 H# \
Codec ID : V_MPEGH/ISO/HEVC1 y; ]/ C% ?) E- D5 K# G9 a; k( F
Duration : 2 h 48 min
) v+ I  l* Z1 p! P4 @! _. ^- f* DBit rate : 16.4 Mb/s3 i) V8 e& L0 A, X. i& O
Width : 3 840 pixels
# T. y4 i" M+ }& \Height : 2 160 pixels0 g. H* U/ e! A
Display aspect ratio : 16:94 T( ]8 Q7 m  n0 C) Y! o
Frame rate mode : Constant
; {  t( I6 Q7 b# s+ M0 ^7 ^Frame rate : 23.976 (24000/1001) FPS
% R: l* p4 `: }Color space : YUV
5 s0 [0 n9 u& q& ]2 z% KChroma subsampling : 4:2:00 `+ `) [5 O# ~" k! N
Bit depth : 10 bits
4 _5 C+ M, R6 A! t* M2 `Bits/(Pixel*Frame) : 0.082
# H: G' @6 J' {' z9 r' ]- Z, IStream size : 19.3 GiB (98%)" Z  D( m8 e$ n3 ~
Default : Yes
6 n% F' j8 _+ {/ \; [! |Forced : No! R0 q$ R+ v. r8 a( A% I
Color range : Limited
" P* ?2 p; n1 P% `7 X1 w9 xColor primaries : BT.2020
# W3 Z4 n, G. ITransfer characteristics : PQ
  S5 L: I1 ~3 N; YMatrix coefficients : BT.2020 non-constant4 R1 u0 q8 @$ q+ m- K+ J
7 m: S/ V3 o5 f* j& @- Z( y8 }
Audio' [+ B! {# u2 Z2 v/ d' u
ID : 2
9 X/ a; I8 X5 r) y% U% }/ U" {Format : E-AC-3
5 j. y( I3 {& C7 m- e# XFormat/Info : Enhanced AC-3$ e/ {" X8 S# v* t
Commercial name : Dolby Digital Plus: |# w  U: \2 A& |2 _, ^
Codec ID : A_EAC3$ O2 v: Z; \* d
Duration : 2 h 48 min1 |, s9 n$ N% T; q: r
Bit rate mode : Constant: L3 Z9 ]. d6 @" o2 o" s& F
Bit rate : 256 kb/s/ }- B' j/ Z# ]* [8 Q0 a0 s
Channel(s) : 6 channels
8 ~9 J, H- A2 T4 C" u) jChannel layout : L R C LFE Ls Rs. l4 C- P# b& e, v
Sampling rate : 48.0 kHz
. m1 g1 d  T+ ZFrame rate : 31.250 FPS (1536 SPF)
/ y( y# t0 d6 A6 ^. ^0 y, oCompression mode : Lossy/ d% K' X0 S3 |
Stream size : 309 MiB (2%)
+ D7 i3 Y( g( Q' G- E" J; C4 uTitle : English
+ @( N8 _9 W( _2 ^3 l) `# ILanguage : English- m" p" }( [  i# F' m
Service kind : Complete Main
9 ]: q" J: ~5 h4 KDefault : Yes
2 ~9 {3 f2 `, O/ U! `, SForced : No
# H: O  R3 Z1 [
% c* E# g# K5 P% i$ M6 v' S7 |& q) t
精彩剧照
, \  z4 v- v* j$ I. g( p: v6 S* j. z& I
6 y* h+ O$ [+ V& Y4 X

加勒比海盗3:世界的尽头4K Pirates.of.the.Caribbean.At.Worlds.End.2007.iNTERNAL.HDR.2160p.WEB.H265-19 ...

加勒比海盗3:世界的尽头4K Pirates.of.the.Caribbean.At.Worlds.End.2007.iNTERNAL.HDR.2160p.WEB.H265-19 ...

+ a; }" w$ W% P2 Q3 ?' ^- |) r; e7 k
+ V) ^: d( i3 {7 `# @, i3 S
蓝光高清网提示您  点击下方附件名称  马上开始下载
' _0 s3 {, t- H! ?  f* S! J* D4 u: j6 L7 F
加勒比海盜:魔盜王终极之战(港) / 神鬼奇航:世界的尽头(台) / 加勒比海盗3:死亡荣誉 / Pirates 3/加勒比海盗3:世界的尽头4K Pirates.of.the.Caribbean.At.Worlds.End.2007.iNTERNAL.HDR.2160p.WEB.H265电影下载
# t+ |3 s: M$ t3 d# [. e; ]$ ]% d) [2 R
加勒比海盗3:世界的尽头4K Pirates.of.the.Caribbean.At.Worlds.End.2007.iNTERNAL.HDR.2160p.WEB.H265【19.58 GB】. \) u! v4 @4 _: O& ]4 G
9 g( g9 j; F4 ]( p% A* ^/ Q
加勒比海盗3:世界的尽头4K Pirates.of.the.Caribbean.At.Worlds.End.2007.iNT.torren.torrent (文件大小:98.55 KB)
回复

使用道具 举报

 

精彩评论5

正序浏览
kvxqewf 发表于 2020-2-7 14:01:56 | 显示全部楼层
 
非常感谢蓝光高清网给大家的享乐4k,祝蓝光高清网越办越好!
回复

使用道具 举报

 
wangfeide4k 发表于 2020-2-8 04:13:12 | 显示全部楼层
 
4444444444444
回复

使用道具 举报

 
大象门门 发表于 2020-2-13 09:40:04 | 显示全部楼层
 
经典的片子一直想收场的。。。。
2 @7 l! c2 Z4 a8 U
回复

使用道具 举报

 
guoshusheng888 发表于 2020-2-17 13:15:43 | 显示全部楼层
 
谢谢楼主分享!
回复

使用道具 举报

 
everlushen 发表于 2020-4-15 12:03:39 | 显示全部楼层
 
非常感谢蓝光高清网分享的各种知识和资源,祝蓝光高清网越来越好
回复

使用道具 举报

 
您需要登录后才可以回帖 登录 | 立即注册

本版积分规则

0关注

0粉丝

745帖子

  • 版块推荐
  • 百宝箱

电影推荐

更多+

热门电影

更多+

下载APP 签到更便捷

官方微信

手机APP

蓝光高清网

专注4k电影、4k视频、VR视频、高清电影、蓝光原盘资源

本站内容部分由用户自主分享和转载自互联网,转载目的在于传递更多信息,并不代表本网赞同其观点和对其真实性负责。

如有侵权、违反国家法律政策行为,请联系我们,我们会第一时间及时清除和处理!

举报反馈邮箱:lanniao@1080pro.net

Copyright   ©2019-2020  蓝光高清网    |网站地图