游客您好
第三方账号登陆
  • 点击联系客服

    在线时间:9:00-18:00

    客服QQ

    1371333023

    电子邮件

    lanniao@1080pro.net
  • 烧友之家APP

    随时掌握烧友资讯

  • 扫描二维码

    关注微信公众号

推荐阅读
蓝鸟
未知星球 | 未知职业
  • 关注0
  • 粉丝2
  • 帖子95523
精选帖子
开启左侧

[4K高清美剧] 摩登情爱 第一季4k Modern.Love.S01.2160p.AMZN.WEBRip.DDP5.1.x264电视剧—84.46 GB

[复制链接]
蓝鸟 发表于 2020-2-13 11:56:25 | 显示全部楼层 |阅读模式 打印 上一主题 下一主题
摩登情爱

状态:第一季(完结)
上映时间:2019-10-18
类型:喜剧 爱情 
地区:美国
导演:约翰·卡尼 / 埃米·罗森 / 汤姆·豪尔 / 莎朗·豪根
主演:安妮·海瑟薇 / 安德鲁·斯科特 / 蒂娜·菲 / 约翰·斯拉特里 / 戴夫·帕特尔
画质标准:4K(3840x2160) 封装音轨:MKV 音轨编码:DTS:X
豆瓣评分:8.7分
剧情简介
一段不寻常的友谊,一位失而复现的旧爱,一桩处在转折点上的婚姻,一场可能不是约会的约会,一个不因循守旧的新家庭——八篇纽约小品,九段“摩登情爱”,演绎当代生活中爱之纷繁复杂,将个中滋味向我们娓娓道来。
  剧集改编自《纽约时报》同名专栏“摩登情爱”,“探索当代人复杂的感情生活,以及爱的痛苦与欢愉....

加入蓝光高清网,轻松下载最新4k资源

您需要 登录 才可以下载或查看,没有帐号?立即注册

x



影片参数


现代爱情 / 现代之爱/摩登情爱 第一季4k Modern.Love.S01.2160p.AMZN.WEBRip.DDP5.1.x264电影信息


Video
ID : 1
Format : AVC
Format/Info : Advanced Video Codec
Format profile : High@L5.1
Format settings : CABAC / 6 Ref Frames
Format settings, CABAC : Yes
Format settings, Reference frames : 6 frames
Codec ID : V_MPEG4/ISO/AVC
Duration : 35 min 17 s
Bit rate : 49.7 Mb/s
Width : 3 840 pixels
Height : 1 920 pixels
Display aspect ratio : 2.000
Frame rate mode : Constant
Frame rate : 23.976 (24000/1001) FPS
Color space : YUV
Chroma subsampling : 4:2:0
Bit depth : 8 bits
Scan type : Progressive
Bits/(Pixel*Frame) : 0.281
Stream size : 12.2 GiB (99%)
Writing library : x264 core 158 r2984+47 456d10a t_mod_New [0-bit@ALL X86_64]
Encoding settings : cabac=1 / ref=6 / deblock=1:-3:-3 / analyse=0x3:0x133 / me=umh / subme=10 / psy=1 / fade_compensate=0.00 / psy_rd=1.00:0.15 / mixed_ref=1 / me_range=48 / chroma_me=1 / trellis=2 / 8x8dct=1 / cqm=0 / deadzone=21,11 / fast_pskip=0 / chroma_qp_offset=-3 / threads=24 / lookahead_threads=4 / sliced_threads=0 / nr=0 / decimate=0 / interlaced=0 / bluray_compat=0 / constrained_intra=0 / fgo=0 / bframes=8 / b_pyramid=2 / b_adapt=2 / b_bias=0 / direct=3 / weightb=1 / open_gop=0 / weightp=2 / keyint=250 / keyint_min=23 / scenecut=40 / intra_refresh=0 / rc=crf / mbtree=0 / crf=18.0000 / qcomp=0.60 / qpmin=0:0:0 / qpmax=69:69:69 / qpstep=4 / ip_ratio=1.30 / pb_ratio=1.20 / aq=3:0.80 / aq-sensitivity=10.00 / aq-factor=1.00:1.00:1.00 / aq2=0 / aq3=0
Language : English
Default : Yes
Forced : No

Audio
ID : 2
Format : E-AC-3
Format/Info : Enhanced AC-3
Commercial name : Dolby Digital Plus
Codec ID : A_EAC3
Duration : 35 min 17 s
Bit rate mode : Constant
Bit rate : 640 kb/s
Channel(s) : 6 channels
Channel layout : L R C LFE Ls Rs
Sampling rate : 48.0 kHz
Frame rate : 31.250 FPS (1536 SPF)
Compression mode : Lossy
Stream size : 162 MiB (1%)
Language : English
Service kind : Complete Main
Default : Yes
Forced : No


蓝光高清网提示您  点击下方附件名称  马上开始下载


现代爱情 / 现代之爱/摩登情爱 第一季4k Modern.Love.S01.2160p.AMZN.WEBRip.DDP5.1.x264电影下载


摩登情爱 第一季4k Modern.Love.S01.2160p.AMZN.WEBRip.DDP5.1.x264【84.46 GB】


摩登情爱 第一季4k Modern.Love.S01.2160p.AMZN.WEBRip.DDP5.1.x264-NTb[rartv].torrent (文件大小:212.32 KB)
加入蓝光高清网VIP会员  无限制下载本站所有资源---点这里

资源下载、资源播放、字幕使用、无法下载等常见问题---点这里
回复

使用道具 举报

精彩评论1

文八囟人 发表于 2021-7-24 14:09:08 | 显示全部楼层
情与爱,很好地进行了诠释。
回复 支持 反对

使用道具 举报

您需要登录后才可以回帖 登录 | 立即注册

本版积分规则

烧友之家(蓝光高清网)本站内容部分由用户自主分享和转载自互联网,转载目的在于传递更多信息,并不代表本网赞同其观点和对其真实性负责。 如有侵权、违反国家法律政策行为,请联系我们,我们会第一时间及时清除和处理!
蓝光高清网 综合资讯平台
关注我们
  • 官方微信公众号
  • 扫码下载官方APP

X3.4 Licensed© 2001-2013 蓝光高清网 烧友之家APP |网站地图