[剧情片] 驭风男孩[中字]2019.720p.NF.WEBRip.DDP5.1.x264-NTG 3.86GB

[复制链接]
蓝鸟VIP会员 永久VIP 发表于 2019-8-18 21:49:41 | 显示全部楼层 |阅读模式 打印 上一主题 下一主题

马上注册,轻松下载,海量资源,让你轻松玩转社区。

您需要 登录 才可以下载或查看,没有帐号?立即注册

x
官方中字

译  名 驭风男孩
片  名 The Boy Who Harnessed the Wind
年  代 2019
产  地 英国
类  别 剧情
语  言 英语
上映日期 2019-01-25(圣丹斯电影节) / 2019-03-01(英国)
IMDb评分 6.8/10 from 123 users
IMDb链接 http://www.imdb.com/title/tt7533152
片  长 113分钟(圣丹斯电影节)
导  演 切瓦特·埃加福特 Chiwetel Ejiofor
编  剧 切瓦特·埃加福特 Chiwetel Ejiofor / William Kamkwamba / Bryan Mealer
主  演 切瓦特·埃加福特 Chiwetel Ejiofor
      诺玛·杜梅温尼 Noma Dumezweni
      爱艾萨·玛依卡 Aïssa Maïga
      Joseph Marcell
      Lemogang Tsipa
      Maxwell Simba
      Lily Banda
      Beatus Ble Msamange
      Kelvin Maxwell Ngoma


简  介

  改编自William Kamkwamba所著自传《驭风男孩》(The Boy Who Harnessed The Wind),讲述一个改变人生的故事:Kamkwamba本人在13岁那年,以小块金属废料、旧自行车零件和木材修建了风轮机,拯救了自己的村庄。
13岁的Kamkwamba因家里没钱交80美元一年的学费而被学校开除,热爱学习的他溜到学校的图书馆,找到了一种拯救饥荒村庄的方法:用父亲的自行车的主架打造了一个简陋但可行的风车,为西部地区提供了急需的电力,不受政府断电的干扰。这个发明也让Kamkwamba得到马拉维一名教授的资助,获得学校的奖学金,并于非洲大陆其他的发明者进行深入交流。

获奖情况

  第35届圣丹斯电影节(2019)
  艾尔弗雷德·斯隆奖

该资源信息参数
  1. Video
  2. ID : 1
  3. Format : AVC
  4. Format/Info : Advanced Video Codec
  5. Format profile : [email protected]
  6. Format settings : CABAC / 3 Ref Frames
  7. Format settings, CABAC : Yes
  8. Format settings, ReFrames : 3 frames
  9. Codec ID : V_MPEG4/ISO/AVC
  10. Duration : 1 h 53 min
  11. Bit rate mode : Variable
  12. Bit rate : 4 220 kb/s
  13. Maximum bit rate : 6 330 kb/s
  14. Width : 1 280 pixels
  15. Height : 720 pixels
  16. Display aspect ratio : 16:9
  17. Frame rate mode : Constant
  18. Frame rate : 24.000 FPS
  19. Color space : YUV
  20. Chroma subsampling : 4:2:0
  21. Bit depth : 8 bits
  22. Scan type : Progressive
  23. Bits/(Pixel*Frame) : 0.191
  24. Stream size : 3.34 GiB (87%)
  25. Writing library : x264 core 148 r2715 7e75228
  26. Encoding settings : cabac=1 / ref=3 / deblock=1:0:0 / analyse=0x1:0x111 / me=umh / subme=10 / psy=1 / psy_rd=1.00:0.00 / mixed_ref=1 / me_range=24 / chroma_me=1 / trellis=2 / 8x8dct=0 / cqm=0 / deadzone=21,11 / fast_pskip=1 / chroma_qp_offset=-2 / threads=8 / lookahead_threads=1 / sliced_threads=0 / nr=0 / decimate=1 / interlaced=0 / bluray_compat=0 / stitchable=1 / constrained_intra=0 / bframes=2 / b_pyramid=0 / b_adapt=2 / b_bias=0 / direct=3 / weightb=1 / open_gop=0 / weightp=2 / keyint=48 / keyint_min=25 / scenecut=0 / intra_refresh=0 / rc_lookahead=48 / rc=2pass / mbtree=1 / bitrate=4220 / ratetol=1.0 / qcomp=0.50 / qpmin=6 / qpmax=51 / qpstep=4 / cplxblur=20.0 / qblur=0.5 / vbv_maxrate=6330 / vbv_bufsize=8440 / nal_hrd=vbr / filler=0 / ip_ratio=1.40 / aq=1:1.00
  27. Default : Yes
  28. Forced : No

  29. Audio
  30. ID : 2
  31. Format : E-AC-3
  32. Format/Info : Enhanced AC-3
  33. Commercial name : Dolby Digital Plus
  34. Codec ID : A_EAC3
  35. Duration : 1 h 53 min
  36. Bit rate mode : Constant
  37. Bit rate : 640 kb/s
  38. Channel(s) : 6 channels
  39. Channel layout : L R C LFE Ls Rs
  40. Sampling rate : 48.0 kHz
  41. Frame rate : 31.250 FPS (1536 SPF)
  42. Compression mode : Lossy
  43. Stream size : 522 MiB (13%)
  44. Title : English
  45. Language : English
  46. Service kind : Complete Main
  47. Default : Yes
  48. Forced : No

  49. Text #1
  50. ID : 3
  51. Format : UTF-8
  52. Codec ID : S_TEXT/UTF8
  53. Codec ID/Info : UTF-8 Plain Text
  54. Duration : 1 h 43 min
  55. Bit rate : 16 b/s
  56. Count of elements : 409
  57. Stream size : 12.1 KiB (0%)
  58. Title : Forced
  59. Language : English
  60. Default : Yes
  61. Forced : Yes

  62. Text #2
  63. ID : 4
  64. Format : UTF-8
  65. Codec ID : S_TEXT/UTF8
  66. Codec ID/Info : UTF-8 Plain Text
  67. Duration : 1 h 45 min
  68. Bit rate : 43 b/s
  69. Count of elements : 1012
  70. Stream size : 33.5 KiB (0%)
  71. Title : SDH
  72. Language : English
  73. Default : No
  74. Forced : No

  75. Text #3
  76. ID : 5
  77. Format : UTF-8
  78. Codec ID : S_TEXT/UTF8
  79. Codec ID/Info : UTF-8 Plain Text
  80. Duration : 1 h 47 min
  81. Bit rate : 57 b/s
  82. Count of elements : 837
  83. Stream size : 45.0 KiB (0%)
  84. Language : Arabic
  85. Default : No
  86. Forced : No

  87. Text #4
  88. ID : 6
  89. Format : UTF-8
  90. Codec ID : S_TEXT/UTF8
  91. Codec ID/Info : UTF-8 Plain Text
  92. Duration : 1 h 47 min
  93. Bit rate : 33 b/s
  94. Count of elements : 828
  95. Stream size : 26.4 KiB (0%)
  96. Language : Czech
  97. Default : No
  98. Forced : No

  99. Text #5
  100. ID : 7
  101. Format : UTF-8
  102. Codec ID : S_TEXT/UTF8
  103. Codec ID/Info : UTF-8 Plain Text
  104. Duration : 1 h 47 min
  105. Bit rate : 33 b/s
  106. Count of elements : 837
  107. Stream size : 26.4 KiB (0%)
  108. Language : Danish
  109. Default : No
  110. Forced : No

  111. Text #6
  112. ID : 8
  113. Format : UTF-8
  114. Codec ID : S_TEXT/UTF8
  115. Codec ID/Info : UTF-8 Plain Text
  116. Duration : 1 h 47 min
  117. Bit rate : 37 b/s
  118. Count of elements : 841
  119. Stream size : 29.2 KiB (0%)
  120. Language : German
  121. Default : No
  122. Forced : No

  123. Text #7
  124. ID : 9
  125. Format : UTF-8
  126. Codec ID : S_TEXT/UTF8
  127. Codec ID/Info : UTF-8 Plain Text
  128. Duration : 1 h 47 min
  129. Bit rate : 59 b/s
  130. Count of elements : 844
  131. Stream size : 46.6 KiB (0%)
  132. Language : Greek
  133. Default : No
  134. Forced : No

  135. Text #8
  136. ID : 10
  137. Format : UTF-8
  138. Codec ID : S_TEXT/UTF8
  139. Codec ID/Info : UTF-8 Plain Text
  140. Duration : 1 h 47 min
  141. Bit rate : 34 b/s
  142. Count of elements : 828
  143. Stream size : 26.8 KiB (0%)
  144. Language : Spanish
  145. Default : No
  146. Forced : No

  147. Text #9
  148. ID : 11
  149. Format : UTF-8
  150. Codec ID : S_TEXT/UTF8
  151. Codec ID/Info : UTF-8 Plain Text
  152. Duration : 1 h 47 min
  153. Bit rate : 32 b/s
  154. Count of elements : 847
  155. Stream size : 25.8 KiB (0%)
  156. Title : European
  157. Language : Spanish
  158. Default : No
  159. Forced : No

  160. Text #10
  161. ID : 12
  162. Format : UTF-8
  163. Codec ID : S_TEXT/UTF8
  164. Codec ID/Info : UTF-8 Plain Text
  165. Duration : 1 h 47 min
  166. Bit rate : 33 b/s
  167. Count of elements : 780
  168. Stream size : 26.4 KiB (0%)
  169. Language : Finnish
  170. Default : No
  171. Forced : No

  172. Text #11
  173. ID : 13
  174. Format : UTF-8
  175. Codec ID : S_TEXT/UTF8
  176. Codec ID/Info : UTF-8 Plain Text
  177. Duration : 1 h 47 min
  178. Bit rate : 37 b/s
  179. Count of elements : 847
  180. Stream size : 29.0 KiB (0%)
  181. Language : French
  182. Default : No
  183. Forced : No

  184. Text #12
  185. ID : 14
  186. Format : UTF-8
  187. Codec ID : S_TEXT/UTF8
  188. Codec ID/Info : UTF-8 Plain Text
  189. Duration : 1 h 47 min
  190. Bit rate : 52 b/s
  191. Count of elements : 873
  192. Stream size : 40.9 KiB (0%)
  193. Language : Hebrew
  194. Default : No
  195. Forced : No

  196. Text #13
  197. ID : 15
  198. Format : UTF-8
  199. Codec ID : S_TEXT/UTF8
  200. Codec ID/Info : UTF-8 Plain Text
  201. Duration : 1 h 47 min
  202. Bit rate : 34 b/s
  203. Count of elements : 833
  204. Stream size : 26.9 KiB (0%)
  205. Language : Hungarian
  206. Default : No
  207. Forced : No

  208. Text #14
  209. ID : 16
  210. Format : UTF-8
  211. Codec ID : S_TEXT/UTF8
  212. Codec ID/Info : UTF-8 Plain Text
  213. Duration : 1 h 47 min
  214. Bit rate : 36 b/s
  215. Count of elements : 829
  216. Stream size : 28.4 KiB (0%)
  217. Language : Indonesian
  218. Default : No
  219. Forced : No

  220. Text #15
  221. ID : 17
  222. Format : UTF-8
  223. Codec ID : S_TEXT/UTF8
  224. Codec ID/Info : UTF-8 Plain Text
  225. Duration : 1 h 47 min
  226. Bit rate : 36 b/s
  227. Count of elements : 828
  228. Stream size : 28.2 KiB (0%)
  229. Language : Italian
  230. Default : No
  231. Forced : No

  232. Text #16
  233. ID : 18
  234. Format : UTF-8
  235. Codec ID : S_TEXT/UTF8
  236. Codec ID/Info : UTF-8 Plain Text
  237. Duration : 1 h 47 min
  238. Bit rate : 45 b/s
  239. Count of elements : 829
  240. Stream size : 35.7 KiB (0%)
  241. Language : Korean
  242. Default : No
  243. Forced : No

  244. Text #17
  245. ID : 19
  246. Format : UTF-8
  247. Codec ID : S_TEXT/UTF8
  248. Codec ID/Info : UTF-8 Plain Text
  249. Duration : 1 h 47 min
  250. Bit rate : 34 b/s
  251. Count of elements : 834
  252. Stream size : 26.7 KiB (0%)
  253. Language : Norwegian Bokmal
  254. Default : No
  255. Forced : No

  256. Text #18
  257. ID : 20
  258. Format : UTF-8
  259. Codec ID : S_TEXT/UTF8
  260. Codec ID/Info : UTF-8 Plain Text
  261. Duration : 1 h 47 min
  262. Bit rate : 32 b/s
  263. Count of elements : 791
  264. Stream size : 25.3 KiB (0%)
  265. Language : Dutch
  266. Default : No
  267. Forced : No

  268. Text #19
  269. ID : 21
  270. Format : UTF-8
  271. Codec ID : S_TEXT/UTF8
  272. Codec ID/Info : UTF-8 Plain Text
  273. Duration : 1 h 47 min
  274. Bit rate : 32 b/s
  275. Count of elements : 862
  276. Stream size : 25.8 KiB (0%)
  277. Language : Polish
  278. Default : No
  279. Forced : No

  280. Text #20
  281. ID : 22
  282. Format : UTF-8
  283. Codec ID : S_TEXT/UTF8
  284. Codec ID/Info : UTF-8 Plain Text
  285. Duration : 1 h 47 min
  286. Bit rate : 34 b/s
  287. Count of elements : 823
  288. Stream size : 27.2 KiB (0%)
  289. Language : Portuguese
  290. Default : No
  291. Forced : No

  292. Text #21
  293. ID : 23
  294. Format : UTF-8
  295. Codec ID : S_TEXT/UTF8
  296. Codec ID/Info : UTF-8 Plain Text
  297. Duration : 1 h 47 min
  298. Bit rate : 36 b/s
  299. Count of elements : 849
  300. Stream size : 28.7 KiB (0%)
  301. Title : Brazilian
  302. Language : Portuguese
  303. Default : No
  304. Forced : No

  305. Text #22
  306. ID : 24
  307. Format : UTF-8
  308. Codec ID : S_TEXT/UTF8
  309. Codec ID/Info : UTF-8 Plain Text
  310. Duration : 1 h 47 min
  311. Bit rate : 38 b/s
  312. Count of elements : 830
  313. Stream size : 30.6 KiB (0%)
  314. Language : Romanian
  315. Default : No
  316. Forced : No

  317. Text #23
  318. ID : 25
  319. Format : UTF-8
  320. Codec ID : S_TEXT/UTF8
  321. Codec ID/Info : UTF-8 Plain Text
  322. Duration : 1 h 47 min
  323. Bit rate : 57 b/s
  324. Count of elements : 839
  325. Stream size : 45.0 KiB (0%)
  326. Language : Russian
  327. Default : No
  328. Forced : No

  329. Text #24
  330. ID : 26
  331. Format : UTF-8
  332. Codec ID : S_TEXT/UTF8
  333. Codec ID/Info : UTF-8 Plain Text
  334. Duration : 1 h 47 min
  335. Bit rate : 34 b/s
  336. Count of elements : 820
  337. Stream size : 27.0 KiB (0%)
  338. Language : Swedish
  339. Default : No
  340. Forced : No

  341. Text #25
  342. ID : 27
  343. Format : UTF-8
  344. Codec ID : S_TEXT/UTF8
  345. Codec ID/Info : UTF-8 Plain Text
  346. Duration : 1 h 47 min
  347. Bit rate : 90 b/s
  348. Count of elements : 829
  349. Stream size : 71.2 KiB (0%)
  350. Language : Thai
  351. Default : No
  352. Forced : No

  353. Text #26
  354. ID : 28
  355. Format : UTF-8
  356. Codec ID : S_TEXT/UTF8
  357. Codec ID/Info : UTF-8 Plain Text
  358. Duration : 1 h 47 min
  359. Bit rate : 33 b/s
  360. Count of elements : 826
  361. Stream size : 26.5 KiB (0%)
  362. Language : Turkish
  363. Default : No
  364. Forced : No

  365. Text #27
  366. ID : 29
  367. Format : UTF-8
  368. Codec ID : S_TEXT/UTF8
  369. Codec ID/Info : UTF-8 Plain Text
  370. Duration : 1 h 47 min
  371. Bit rate : 43 b/s
  372. Count of elements : 854
  373. Stream size : 34.4 KiB (0%)
  374. Language : Vietnamese
  375. Default : No
  376. Forced : No

  377. Text #28
  378. ID : 30
  379. Format : UTF-8
  380. Codec ID : S_TEXT/UTF8
  381. Codec ID/Info : UTF-8 Plain Text
  382. Duration : 1 h 47 min
  383. Bit rate : 34 b/s
  384. Count of elements : 829
  385. Stream size : 27.0 KiB (0%)
  386. Title : Simplified
  387. Language : Chinese
  388. Default : No
  389. Forced : No

  390. Text #29
  391. ID : 31
  392. Format : UTF-8
  393. Codec ID : S_TEXT/UTF8
  394. Codec ID/Info : UTF-8 Plain Text
  395. Duration : 1 h 47 min
  396. Bit rate : 34 b/s
  397. Count of elements : 837
  398. Stream size : 27.3 KiB (0%)
  399. Title : Traditional
  400. Language : Chinese
  401. Default : No
  402. Forced : No
复制代码



精彩剧照




蓝光高清网提示您 点击下方附件名称 马上开始下载



  • 该资源需要您回复以后 刷新网页进行下载操作

  • 1、The.Boy.Who.Harnessed.the.Wind.2019.720p.NF.WEBRip.DDP5.1.x264-NTG.torrent 39KB 已下载 0 次

加入蓝光高清网VIP会员  无限制下载本站所有资源---点此加入

资源下载、资源播放、字幕使用、无法下载等常见问题---点这里

回复

使用道具 举报

懒得打字嘛,点击右侧快捷回复
高级模式
B Color Image Link Quote Code Smilies 上传

本版积分规则

关注0

粉丝0

帖子45769

发布主题
最新电影 论坛
广告位

Archiver手机版蓝光高清网 ( 渝ICP备18006373号-2 )|网站地图

Powered by Discuz! X3.4  © 2001-2013 Comsenz Inc.