[动画] 宠物小精灵:决战时空之塔 帝牙卢卡VS帕路奇犽VS达克莱伊/剧场版Pokemon.Movie.The.Rise.Of.Darkrai.2007.JAPANESE.1080p.BluRay.x264.DTS-FGT 8.45GB

[复制链接]
蓝鸟 发表于 2020-2-21 23:14:35 | 显示全部楼层 |阅读模式 打印 上一主题 下一主题


译  名 宠物小精灵:决战时空之塔 帝牙卢卡VS帕路奇犽VS达克莱伊 / 剧场版ポケットモンスター ダイヤモンド&パール ディアルガVSパルキアVSダークライ / 剧场版口袋妖怪钻石&珍珠迪亚路卡VS帕鲁基亚VS达库莱
片  名 劇場版ポケットモンスターダイヤモンド&パール ディアルガVSパルキアVSダークライ
年  代 2007
产  地 日本
类  别 科幻 / 动画 / 奇幻 / 冒险
语  言 日语
上映日期 2007-07-14(日本)
IMDb评分  6.4/10 from 2602 users
IMDb链接  https://www.imdb.com/title/tt1226251
豆瓣评分 7.9/10 from 2692 users
豆瓣链接 https://movie.douban.com/subject/3059378/
片  长 USA: 90 分钟
导  演 汤山邦彦 Kunihiko Yuyama
编  剧 园田英树 Hideki Sonoda
主  演 松本梨香 Rica Matsumoto
       大谷育江 Ikue Ootani
       上田祐司 Y?ji Ueda
       丰口惠美 Megumi Toyoguchi
       小樱悦子 Etsuko Kozakura
       林原惠美 Megumi Hayashibara
       三木真一郎 Shinichir? Miki
       犬山犬子 Inuko Inuyama
       铃鹿千春
       能登麻美子 Mamiko Noto
       井上喜久子 Kikuko Inoue
       三宅健太 Kenta Miyake
       伊东美弥子 Itou Miyako
       西村千奈美 Chinami Nishimura
       川上伦子 Tomoko Kawakami
       阪口大助 Daisuke Sakaguchi
       小西克幸 Katsuyuki Konishi
       古岛清孝 Furushima Kiyotaka
       石冢运升 Unsh? Ishizuka
       佐藤智惠 Satou Chie
       仁科洋平
       传坂勉 Densaka Tsutomu
       逢坂力 Ousaka Chikara
       座光寺知幸
       佐佐木日菜子
       植竹香菜 Uetake Kana
       中塚玲
       寺谷美香
       西优子
       三浦博和
       相马幸人 Souma Yukito
       中西英树 Nakanishi Hideki
       山本耕史 K?ji Yamamoto
       加藤罗莎 Rosa Kat?
       秋山龙次 Ry?ji Akiyama
       马场裕之
       山本博 Hiroshi Yamamoto
       中川翔子 Sh?ko Nakagawa
       石坂浩二 K?ji Ishizaka
       山寺宏一 K?ichi Yamadera


标  签 剧场版 | 动画 | 日本 | 宠物小精灵 | 日本动画 | 口袋妖怪 | 2007 | 动漫

简  介  

  持续在世界各地进行修业之旅的小智(松本梨香 配音)、小刚(うえだゆうじ 配音)和小霞(豊口めぐみ 配音),历经长途跋涉终于来到了位于山谷丘陵处的目的地阿拉莫斯镇。小镇上耸立着象征时间与空间的时光之塔,新一轮的神奇宝贝竞赛将在塔的下方举行。小智一行走错了路,却由此结识当地的美丽女孩艾丽丝(加藤ローサ 配音)。紧张的战斗与快乐的游玩,却未察觉危险正悄悄逼进。小智遭到噩梦精灵达库莱伊的袭击,虽然达库莱伊被当地所有人讨厌,但是它似乎想将某种危险、恐怖的信息及时传给小智一行,关于时空之塔的秘密即将揭开……
  本片为神奇宝贝系列第十部电影剧场版。


该资源信息参数
  1. Video
  2. ID                                       : 1
  3. Format                                   : AVC
  4. Format/Info                              : Advanced Video Codec
  5. Format profile                           : High@L4
  6. Format settings                          : CABAC / 4 Ref Frames
  7. Format settings, CABAC                   : Yes
  8. Format settings, Reference frames        : 4 frames
  9. Codec ID                                 : V_MPEG4/ISO/AVC
  10. Duration                                 : 1 h 29 min
  11. Bit rate                                 : 11.5 Mb/s
  12. Width                                    : 1 920 pixels
  13. Height                                   : 1 048 pixels
  14. Display aspect ratio                     : 1.85:1
  15. Frame rate mode                          : Constant
  16. Frame rate                               : 23.976 (24000/1001) FPS
  17. Color space                              : YUV
  18. Chroma subsampling                       : 4:2:0
  19. Bit depth                                : 8 bits
  20. Scan type                                : Progressive
  21. Bits/(Pixel*Frame)                       : 0.238
  22. Stream size                              : 7.22 GiB (85%)
  23. Title                                    : Pokemon.Movie.The.Rise.Of.Darkrai.2007.JAPANESE.1080p.BluRay.x264.DTS-FGT
  24. Writing library                          : x264 core 148 r2795M aaa9aa8
  25. Encoding settings                        : cabac=1 / ref=4 / deblock=1:1:1 / analyse=0x3:0x113 / me=umh / subme=8 / psy=1 / psy_rd=0.50:0.00 / mixed_ref=1 / me_range=32 / chroma_me=1 / trellis=2 / 8x8dct=1 / cqm=0 / deadzone=21,11 / fast_pskip=1 / chroma_qp_offset=-2 / threads=72 / lookahead_threads=3 / sliced_threads=0 / nr=0 / decimate=1 / interlaced=0 / bluray_compat=0 / constrained_intra=0 / bframes=3 / b_pyramid=2 / b_adapt=1 / b_bias=0 / direct=3 / weightb=1 / open_gop=0 / weightp=2 / keyint=240 / keyint_min=24 / scenecut=40 / intra_refresh=0 / rc_lookahead=50 / rc=2pass / mbtree=1 / bitrate=11500 / ratetol=1.0 / qcomp=0.60 / qpmin=0 / qpmax=69 / qpstep=4 / cplxblur=20.0 / qblur=0.5 / vbv_maxrate=31250 / vbv_bufsize=31250 / nal_hrd=none / filler=0 / ip_ratio=1.40 / aq=3:0.60
  26. Language                                 : Japanese
  27. Default                                  : Yes
  28. Forced                                   : No

  29. Audio #1
  30. ID                                       : 2
  31. Format                                   : DTS
  32. Format/Info                              : Digital Theater Systems
  33. Codec ID                                 : A_DTS
  34. Duration                                 : 1 h 29 min
  35. Bit rate mode                            : Constant
  36. Bit rate                                 : 1 509 kb/s
  37. Channel(s)                               : 6 channels
  38. Channel layout                           : C L R Ls Rs LFE
  39. Sampling rate                            : 48.0 kHz
  40. Frame rate                               : 93.750 FPS (512 SPF)
  41. Bit depth                                : 16 bits
  42. Compression mode                         : Lossy
  43. Stream size                              : 970 MiB (11%)
  44. Title                                    : Pokemon.Movie.The.Rise.Of.Darkrai.2007.JAPANESE.1080p.BluRay.x264.DTS-FGT
  45. Language                                 : Japanese
  46. Default                                  : Yes
  47. Forced                                   : No

  48. Audio #2
  49. ID                                       : 3
  50. Format                                   : AC-3
  51. Format/Info                              : Audio Coding 3
  52. Commercial name                          : Dolby Digital
  53. Codec ID                                 : A_AC3
  54. Duration                                 : 1 h 29 min
  55. Bit rate mode                            : Constant
  56. Bit rate                                 : 448 kb/s
  57. Channel(s)                               : 6 channels
  58. Channel layout                           : L R C LFE Ls Rs
  59. Sampling rate                            : 48.0 kHz
  60. Frame rate                               : 31.250 FPS (1536 SPF)
  61. Bit depth                                : 16 bits
  62. Compression mode                         : Lossy
  63. Stream size                              : 288 MiB (3%)
  64. Title                                    : Pokemon.Movie.The.Rise.Of.Darkrai.2007.JAPANESE.1080p.BluRay.x264.DTS-FGT
  65. Language                                 : English
  66. Service kind                             : Complete Main
  67. Default                                  : No
  68. Forced                                   : No

  69. Text
  70. ID                                       : 4
  71. Format                                   : UTF-8
  72. Codec ID                                 : S_TEXT/UTF8
  73. Codec ID/Info                            : UTF-8 Plain Text
  74. Duration                                 : 1 h 29 min
  75. Bit rate                                 : 30 b/s
  76. Count of elements                        : 747
  77. Stream size                              : 19.9 KiB (0%)
  78. Language                                 : English
  79. Default                                  : Yes
  80. Forced                                   : No
复制代码


精彩剧照




蓝光高清网提示您 点击下方附件名称 马上开始下载



温馨提示:
本站资源优先使用迅雷下载,迅雷会员下载,速度基本可以跑满宽带
如果遇到无资源或者版权问题无法下载,推荐使用115网盘离线下载(点击查看115网盘离线下载教程


  • 该资源需要您回复以后 刷新网页进行下载操作

  • 1、Pokemon.Movie.The.Rise.Of.Darkrai.2007.JAPANESE.1080p.BluRay.x264.DTS-FGT.torrent 43KB 已下载 0 次

加入蓝光高清网VIP会员  无限制下载本站所有资源---点此加入

资源下载、资源播放、字幕使用、无法下载等常见问题---点这里

回复

使用道具 举报

精彩评论2

enpir 发表于 2020-2-22 07:26:37 | 显示全部楼层
好网站,希望越来越好

加入蓝光高清网VIP会员  无限制下载本站所有资源---点此加入

资源下载、资源播放、字幕使用、无法下载等常见问题---点这里

回复

使用道具 举报

ballabc 发表于 2020-2-22 08:32:30 | 显示全部楼层
祝蓝光高清网越办越红火。

加入蓝光高清网VIP会员  无限制下载本站所有资源---点此加入

资源下载、资源播放、字幕使用、无法下载等常见问题---点这里

回复

使用道具 举报

您需要登录后才可以回帖 登录 | 立即注册

本版积分规则

关注0

粉丝0

帖子80367

发布主题
最新电影 论坛
本期活动
联系我们
点击这里联系客服

服务时间:
周一到周日8:00-23:30

  • 打开微信扫一扫
    关注公众号

  • 手机QQ扫一扫
    添加客服

手机版蓝光高清网 ( 渝ICP备18006373号-2 )|网站地图

Powered by Discuz! X3.4  © 2001-2013 Comsenz Inc.