[喜剧] 狂热周五夜/周末狂热 Thank.God.Its.Friday.1978.1080p.BluRay.x264-LATENCY 5.47GB

[复制链接]
蓝鸟 发表于 2020-2-21 23:15:43 | 显示全部楼层 |阅读模式 打印 上一主题 下一主题


译  名 狂热周五夜 / 周末狂热 / 星期五热潮
片  名 Thank God It"s Friday
年  代 1978
产  地 美国
类  别 喜剧 / 音乐
语  言 英语
上映日期 1978-05-19
IMDb评分  5.4/10 from 2048 users
IMDb链接  https://www.imdb.com/title/tt0078382
豆瓣评分 0/10 from 0 users
豆瓣链接 https://movie.douban.com/subject/1300216/
片  长 89 分钟
导  演 Robert Klane
编  剧 Armyan Bernstein
主  演 杰夫·高布伦 Jeff Goldblum
       Donna Summer
       Valerie Landsburg
       aul Jabara
       德博拉·温格 Debra Winger
       DeWayne Jessie
       Ray Vitte
       Mark Lonow
       Chuck Sacci
       Chick Vennera


标  签 musical | 音乐 | 美国 | 1970s | 美国电影 | 喜剧 | Music | 1978

简  介  

  Thank God It"s Friday is a 1978 film directed by Robert Klane and produced by Motown Productions and Casablanca Filmworks for Columbia Pictures (whose "Torch Lady", in a specially-produced logo, dances to disco music before the opening credits). Produced at the height of the disco craze, the film features The Commodores performing "Too Hot to Trot", and Donna Summer performing "Last Dance" which won the Academy Award for Best Song in 1979. The film features an early performance by Jeff Goldblum and the first major screen appearance by Debra Winger.
  罗伯特.克兰导演的这部影片,讲述各式各样的年轻人来到了洛杉矶的一间迪斯科夜总会,因为此地要举行一场跳舞大赛,并由电台作实况转播。在迪斯科热潮时拍摄的黑人版“周末狂热”,由两间唱片公司联合投资拍摄。本片曾获奥斯卡最佳电影歌曲奖。

获奖情况  

  第51届奥斯卡金像奖(1979)
  最佳原创歌曲 Paul Jabara


该资源信息参数
  1. Video
  2. ID                                       : 1
  3. Format                                   : AVC
  4. Format/Info                              : Advanced Video Codec
  5. Format profile                           : High@L4
  6. Format settings                          : CABAC / 4 Ref Frames
  7. Format settings, CABAC                   : Yes
  8. Format settings, Reference frames        : 4 frames
  9. Codec ID                                 : V_MPEG4/ISO/AVC
  10. Duration                                 : 1 h 29 min
  11. Bit rate                                 : 8 076 kb/s
  12. Width                                    : 1 920 pixels
  13. Height                                   : 1 040 pixels
  14. Display aspect ratio                     : 1.85:1
  15. Frame rate mode                          : Constant
  16. Frame rate                               : 23.976 (24000/1001) FPS
  17. Color space                              : YUV
  18. Chroma subsampling                       : 4:2:0
  19. Bit depth                                : 8 bits
  20. Scan type                                : Progressive
  21. Bits/(Pixel*Frame)                       : 0.169
  22. Stream size                              : 5.04 GiB (92%)
  23. Writing library                          : x264 core 158 r2988 7817004
  24. Encoding settings                        : cabac=1 / ref=4 / deblock=1:0:0 / analyse=0x3:0x113 / me=umh / subme=8 / psy=1 / psy_rd=1.00:0.00 / mixed_ref=1 / me_range=16 / chroma_me=1 / trellis=2 / 8x8dct=1 / cqm=0 / deadzone=21,11 / fast_pskip=0 / chroma_qp_offset=-2 / threads=32 / lookahead_threads=5 / sliced_threads=0 / nr=0 / decimate=1 / interlaced=0 / bluray_compat=0 / constrained_intra=0 / bframes=3 / b_pyramid=2 / b_adapt=1 / b_bias=0 / direct=3 / weightb=1 / open_gop=0 / weightp=2 / keyint=250 / keyint_min=23 / scenecut=40 / intra_refresh=0 / rc_lookahead=50 / rc=2pass / mbtree=1 / bitrate=8076 / ratetol=1.0 / qcomp=0.60 / qpmin=0 / qpmax=69 / qpstep=4 / cplxblur=20.0 / qblur=0.5 / ip_ratio=1.40 / aq=1:1.00
  25. Default                                  : Yes
  26. Forced                                   : No

  27. Audio
  28. ID                                       : 2
  29. Format                                   : FLAC
  30. Format/Info                              : Free Lossless Audio Codec
  31. Codec ID                                 : A_FLAC
  32. Duration                                 : 1 h 29 min
  33. Bit rate mode                            : Variable
  34. Bit rate                                 : 672 kb/s
  35. Channel(s)                               : 2 channels
  36. Channel layout                           : L R
  37. Sampling rate                            : 48.0 kHz
  38. Frame rate                               : 11.719 FPS (4096 SPF)
  39. Bit depth                                : 16 bits
  40. Compression mode                         : Lossless
  41. Stream size                              : 430 MiB (8%)
  42. Title                                    : English
  43. Writing library                          : libFLAC 1.2.1 (UTC 2007-09-17)
  44. Language                                 : English
  45. Default                                  : No
  46. Forced                                   : No

  47. Text
  48. ID                                       : 3
  49. Format                                   : UTF-8
  50. Codec ID                                 : S_TEXT/UTF8
  51. Codec ID/Info                            : UTF-8 Plain Text
  52. Duration                                 : 1 h 29 min
  53. Bit rate                                 : 76 b/s
  54. Count of elements                        : 2031
  55. Stream size                              : 50.1 KiB (0%)
  56. Title                                    : English-HI
  57. Language                                 : English
  58. Default                                  : No
  59. Forced                                   : No

  60. Menu
  61. 00:00:00.000                             : en:Chapter 01
  62. 00:10:55.029                             : en:Chapter 02
  63. 00:24:56.203                             : en:Chapter 03
  64. 00:33:59.955                             : en:Chapter 04
  65. 00:43:30.441                             : en:Chapter 05
  66. 00:59:14.092                             : en:Chapter 06
  67. 01:09:08.978                             : en:Chapter 07
  68. 01:17:24.849                             : en:Chapter 08
  69. 01:26:23.261                             : en:Chapter 09
复制代码


精彩剧照




蓝光高清网提示您 点击下方附件名称 马上开始下载



温馨提示:
本站资源优先使用迅雷下载,迅雷会员下载,速度基本可以跑满宽带
如果遇到无资源或者版权问题无法下载,推荐使用115网盘离线下载(点击查看115网盘离线下载教程


  • 该资源需要您回复以后 刷新网页进行下载操作

  • 1、Thank.God.Its.Friday.1978.1080p.BluRay.x264-LATENCY.torrent 28KB 已下载 0 次

加入蓝光高清网VIP会员  无限制下载本站所有资源---点此加入

资源下载、资源播放、字幕使用、无法下载等常见问题---点这里

回复

使用道具 举报

精彩评论2

wwd203981877988 发表于 2020-2-22 07:31:47 | 显示全部楼层
好资源,顶一个

加入蓝光高清网VIP会员  无限制下载本站所有资源---点此加入

资源下载、资源播放、字幕使用、无法下载等常见问题---点这里

回复

使用道具 举报

aiserlin 发表于 2020-2-22 10:34:03 | 显示全部楼层
非常感谢蓝光高清网给大家的享乐4k,祝蓝光高清网越办越好!

加入蓝光高清网VIP会员  无限制下载本站所有资源---点此加入

资源下载、资源播放、字幕使用、无法下载等常见问题---点这里

回复

使用道具 举报

您需要登录后才可以回帖 登录 | 立即注册

本版积分规则

关注0

粉丝0

帖子80367

发布主题
最新电影 论坛
本期活动
联系我们
点击这里联系客服

服务时间:
周一到周日8:00-23:30

  • 打开微信扫一扫
    关注公众号

  • 手机QQ扫一扫
    添加客服

手机版蓝光高清网 ( 渝ICP备18006373号-2 )|网站地图

Powered by Discuz! X3.4  © 2001-2013 Comsenz Inc.