[惊悚] 我唾弃你的坟墓:似曾相识/我唾弃你的坟墓4 I.Spit.On.Your.Grave.Deja.Vu.2019.1080p.BluRay.x264-CREEPSHOW 13.11GB

[复制链接]
蓝鸟 发表于 2020-2-21 23:16:48 | 显示全部楼层 |阅读模式 打印 上一主题 下一主题


译  名 我唾弃你的坟墓:似曾相识 / 我唾弃你的坟墓4
片  名 I Spit on Your Grave: Deja Vu
年  代 2019
产  地 美国
类  别 惊悚 / 恐怖
语  言 英语
上映日期 2019-04-23(美国)
IMDb评分  2.3/10 from 1453 users
IMDb链接  https://www.imdb.com/title/tt4058836
豆瓣评分 3.6/10 from 2136 users
豆瓣链接 https://movie.douban.com/subject/26420435/
片  长 148分钟
导  演 梅尔·扎奇 Meir Zarchi
编  剧 梅尔·扎奇 Meir Zarchi
主  演 卡米尔·基顿 Camille Keaton
       玛利亚·奥尔森 Maria Olsen
       梅尔·扎奇 Meir Zarchi
       本·瓦伦 Ben Whalen
       Jamie Bernadette
       Jim Tavaré
       Jonathan Peacy
       Jeremy Ferdman
       Holgie Forrester
       Roy Allen III
       Alexandra Kenworthy
       Terry Zarchi
       Tammy Zarchi
       Adam Cerro
       hillip K. Galaras
       Kelci C. Magel
       Tony Snegoff


标  签 烂片 | 血腥 | 犯罪 | 惊悚 | 恐怖 | 我唾弃你的坟墓 | 美国 | 暴力

简  介  

  在遭遇了非人的虐待并亲手屠杀了那几名施暴者之后,女作家詹妮弗·希尔斯(卡米尔·基顿 Camille Keaton 饰)声名大振。她不仅没有遭到法律的制裁,而且将自己的经历写成书出版,并四处讲座,光彩耀人。而今詹妮弗虽然上了年纪,她依然没有低调行事的打算。与此同时,詹妮弗的女儿克里斯蒂(Jamie Bernadette 饰)业已长大成人,并成为知名的模特。某天,母女步出餐厅,偶遇两名粉丝要求签名留念。谁曾想,毫无戒备的母女二人竟被对方劫持。
  原来,对方均是当年被詹妮弗杀掉的青年的家属,特别是领头人的妻子贝基(玛利亚·奥尔森 Maria Olsen 饰)对詹妮弗恨之入骨,她发誓要用最残酷的方式抱负躺在老公及其朋友尸骨上赚钱的詹妮弗……


该资源信息参数
  1. Video
  2. ID                                       : 1
  3. Format                                   : AVC
  4. Format/Info                              : Advanced Video Codec
  5. Format profile                           : High@L4
  6. Format settings                          : CABAC / 5 Ref Frames
  7. Format settings, CABAC                   : Yes
  8. Format settings, Reference frames        : 5 frames
  9. Codec ID                                 : V_MPEG4/ISO/AVC
  10. Duration                                 : 2 h 28 min
  11. Bit rate                                 : 11.9 Mb/s
  12. Width                                    : 1 920 pixels
  13. Height                                   : 800 pixels
  14. Display aspect ratio                     : 2.40:1
  15. Frame rate mode                          : Constant
  16. Frame rate                               : 23.976 (24000/1001) FPS
  17. Color space                              : YUV
  18. Chroma subsampling                       : 4:2:0
  19. Bit depth                                : 8 bits
  20. Scan type                                : Progressive
  21. Bits/(Pixel*Frame)                       : 0.323
  22. Stream size                              : 12.3 GiB (94%)
  23. Writing library                          : x264 core 157 r2969 d4099dd
  24. Encoding settings                        : cabac=1 / ref=5 / deblock=1:-2:-2 / analyse=0x3:0x133 / me=umh / subme=9 / psy=1 / psy_rd=1.00:0.00 / mixed_ref=1 / me_range=16 / chroma_me=1 / trellis=2 / 8x8dct=1 / cqm=0 / deadzone=21,11 / fast_pskip=0 / chroma_qp_offset=-2 / threads=12 / lookahead_threads=1 / sliced_threads=0 / nr=0 / decimate=1 / interlaced=0 / bluray_compat=0 / constrained_intra=0 / bframes=3 / b_pyramid=2 / b_adapt=2 / b_bias=0 / direct=3 / weightb=1 / open_gop=0 / weightp=2 / keyint=240 / keyint_min=23 / scenecut=40 / intra_refresh=0 / rc_lookahead=50 / rc=2pass / mbtree=1 / bitrate=11901 / ratetol=1.0 / qcomp=0.60 / qpmin=0 / qpmax=69 / qpstep=4 / cplxblur=20.0 / qblur=0.5 / vbv_maxrate=62500 / vbv_bufsize=78125 / nal_hrd=none / filler=0 / ip_ratio=1.40 / aq=1:0.70
  25. Default                                  : Yes
  26. Forced                                   : No

  27. Audio
  28. ID                                       : 2
  29. Format                                   : DTS
  30. Format/Info                              : Digital Theater Systems
  31. Codec ID                                 : A_DTS
  32. Duration                                 : 2 h 28 min
  33. Bit rate mode                            : Constant
  34. Bit rate                                 : 768 kb/s
  35. Channel(s)                               : 6 channels
  36. Channel layout                           : C L R Ls Rs LFE
  37. Sampling rate                            : 48.0 kHz
  38. Frame rate                               : 93.750 FPS (512 SPF)
  39. Bit depth                                : 24 bits
  40. Compression mode                         : Lossy
  41. Stream size                              : 814 MiB (6%)
  42. Language                                 : English
  43. Default                                  : Yes
  44. Forced                                   : No

  45. Menu
  46. 00:00:00.000                             : en:Chapter 01
  47. 00:09:58.598                             : en:Chapter 02
  48. 00:24:04.818                             : en:Chapter 03
  49. 00:38:47.033                             : en:Chapter 04
  50. 00:52:12.880                             : en:Chapter 05
  51. 01:09:52.772                             : en:Chapter 06
  52. 01:18:10.603                             : en:Chapter 07
  53. 01:33:06.664                             : en:Chapter 08
  54. 01:53:30.429                             : en:Chapter 09
  55. 02:04:16.991                             : en:Chapter 10
  56. 02:15:08.642                             : en:Chapter 11
  57. 02:25:58.083                             : en:Chapter 12
复制代码


精彩剧照




蓝光高清网提示您 点击下方附件名称 马上开始下载



温馨提示:
本站资源优先使用迅雷下载,迅雷会员下载,速度基本可以跑满宽带
如果遇到无资源或者版权问题无法下载,推荐使用115网盘离线下载(点击查看115网盘离线下载教程


  • 该资源需要您回复以后 刷新网页进行下载操作

  • 1、I.Spit.On.Your.Grave.Deja.Vu.2019.1080p.BluRay.x264-CREEPSHOW.torrent 66KB 已下载 1 次

加入蓝光高清网VIP会员  无限制下载本站所有资源---点此加入

资源下载、资源播放、字幕使用、无法下载等常见问题---点这里

回复

使用道具 举报

精彩评论10

12344a 发表于 2020-2-22 06:00:09 | 显示全部楼层
近期肺炎闹得挺厉害,大家伙还是多访问访问蓝光高清网,为国家做贡献。访问蓝光高清网,就是为国出力

加入蓝光高清网VIP会员  无限制下载本站所有资源---点此加入

资源下载、资源播放、字幕使用、无法下载等常见问题---点这里

回复

使用道具 举报

nagisapp 发表于 2020-2-22 06:35:39 | 显示全部楼层
非常感谢蓝光高清网分享的各种知识和资源,祝蓝光高清网越来越好

加入蓝光高清网VIP会员  无限制下载本站所有资源---点此加入

资源下载、资源播放、字幕使用、无法下载等常见问题---点这里

回复

使用道具 举报

409288634 发表于 2020-2-22 07:01:15 | 显示全部楼层
支持蓝光高清网!

加入蓝光高清网VIP会员  无限制下载本站所有资源---点此加入

资源下载、资源播放、字幕使用、无法下载等常见问题---点这里

回复

使用道具 举报

teddog 发表于 2020-2-22 09:02:48 | 显示全部楼层
近期肺炎闹得挺厉害,大家伙还是多访问访问蓝光高清网,为国家做贡献。访问蓝光高清网,就是为国出力

加入蓝光高清网VIP会员  无限制下载本站所有资源---点此加入

资源下载、资源播放、字幕使用、无法下载等常见问题---点这里

回复

使用道具 举报

s0932100286 发表于 2020-2-22 09:38:23 | 显示全部楼层
好资源,顶一个

加入蓝光高清网VIP会员  无限制下载本站所有资源---点此加入

资源下载、资源播放、字幕使用、无法下载等常见问题---点这里

回复

使用道具 举报

小可怜猪 发表于 2020-2-22 09:48:30 | 显示全部楼层
祝大家身体健康,团结一致,抗击疫情

加入蓝光高清网VIP会员  无限制下载本站所有资源---点此加入

资源下载、资源播放、字幕使用、无法下载等常见问题---点这里

回复

使用道具 举报

genhubby 发表于 2020-2-22 09:58:41 | 显示全部楼层
好网站,希望越来越好

加入蓝光高清网VIP会员  无限制下载本站所有资源---点此加入

资源下载、资源播放、字幕使用、无法下载等常见问题---点这里

回复

使用道具 举报

kwak 发表于 2020-2-22 10:18:51 | 显示全部楼层
身体健康,天天开心,祝蓝光高清网越办越红火

加入蓝光高清网VIP会员  无限制下载本站所有资源---点此加入

资源下载、资源播放、字幕使用、无法下载等常见问题---点这里

回复

使用道具 举报

wyfj 发表于 2020-2-22 19:24:00 | 显示全部楼层
有中文字幕吗   能不能标注一下

加入蓝光高清网VIP会员  无限制下载本站所有资源---点此加入

资源下载、资源播放、字幕使用、无法下载等常见问题---点这里

回复

使用道具 举报

您需要登录后才可以回帖 登录 | 立即注册

本版积分规则

关注0

粉丝0

帖子80367

发布主题
最新电影 论坛
本期活动
联系我们
点击这里联系客服

服务时间:
周一到周日8:00-23:30

  • 打开微信扫一扫
    关注公众号

  • 手机QQ扫一扫
    添加客服

手机版蓝光高清网 ( 渝ICP备18006373号-2 )|网站地图

Powered by Discuz! X3.4  © 2001-2013 Comsenz Inc.