[剧情] 哥哥太爱我了怎么办 My.Brother.Loves.Me.Too.Much.2017.JAPANESE.1080p.BluRay.x264.DTS-iKiW 8.99GB

[复制链接]
蓝鸟 发表于 2020-2-21 23:20:09 | 显示全部楼层 |阅读模式 打印 上一主题 下一主题


译  名 哥哥太爱我了怎么办
片  名 兄に愛されすぎて困ってます
年  代 2017
产  地 日本
类  别 剧情 / 喜剧
语  言 日语
上映日期 2017-06-30(日本)
IMDb评分  5.7/10 from 202 users
IMDb链接  https://www.imdb.com/title/tt6075764
豆瓣评分 6.2/10 from 25484 users
豆瓣链接 https://movie.douban.com/subject/26874517/
片  长 99分钟
导  演 河合勇人 Yuto Kawai
编  剧 松田裕子 Y?ko Matsuda / 夜神里奈 Rina Yagami
主  演 土屋太凤 Tao Tsuchiya
       片寄凉太 Katayose Ryota
       千叶雄大 Yudai Chiba
       草川拓弥 Takuya Kusakawa
       杉野遥亮
       大野丝 Ito ?no
       江原由希子 YOU
       神尾枫珠 Kamio Fūju
       森高爱 moritaka ai
       川津明日香 Kawazu Asuka
       越智尤拉诺 Yurano Ochi
       近江谷太朗 Oumiya Tarou
       井上裕介 Yūsuke Inoue


标  签 爱情 | 日本 | 青春 | 日剧 | 漫画改编 | 日剧和日影 | 漫改 | 2017

简  介  

  橘濑户花(土屋太凤 饰)是一名活泼可爱的高中女生,一天,她鼓足了勇气向剑道部的铃木告白,谁知道遭到了对方的拒绝。截止到目前为止,这已经是橘濑户花第12次告白失败了,百思不得其解的橘濑户花决定向铃木问个明白,才知道原来自己一直差劲到底的桃花运,和自己的哥哥橘遥(片寄凉太 饰)有关。
  一天,橘濑户花和名为芹川高岭(千叶雄大 饰)的男子重逢了,高岭是橘濑户花曾经的初恋对象, 如今他再度出现在她的身边,还对她展现出了别样的热情,这一切让橘濑户花的内心开始骚动起来。与此同时,橘遥震惊的发现,自己和妹妹其实并没有血缘关系。


该资源信息参数
  1. Video
  2. ID                                       : 1
  3. Format                                   : AVC
  4. Format/Info                              : Advanced Video Codec
  5. Format profile                           : High@L4
  6. Format settings                          : CABAC / 4 Ref Frames
  7. Format settings, CABAC                   : Yes
  8. Format settings, Reference frames        : 4 frames
  9. Codec ID                                 : V_MPEG4/ISO/AVC
  10. Duration                                 : 1 h 39 min
  11. Bit rate                                 : 11.5 Mb/s
  12. Width                                    : 1 920 pixels
  13. Height                                   : 1 038 pixels
  14. Display aspect ratio                     : 1.85:1
  15. Frame rate mode                          : Constant
  16. Frame rate                               : 23.976 (24000/1001) FPS
  17. Color space                              : YUV
  18. Chroma subsampling                       : 4:2:0
  19. Bit depth                                : 8 bits
  20. Scan type                                : Progressive
  21. Bits/(Pixel*Frame)                       : 0.240
  22. Stream size                              : 7.93 GiB (88%)
  23. Writing library                          : x264 core 129 r2245+704+36 8e61944 tMod+MixAQ [High@L4:2:0 X86_64]
  24. Encoding settings                        : cabac=1 / ref=4 / deblock=1:-3:-3 / analyse=0x3:0x133 / me=umh / subme=11 / psy=1 / fade_compensate=0.00 / psy_rd=1.05:0.10 / mixed_ref=1 / me_range=64 / chroma_me=1 / trellis=2 / 8x8dct=1 / cqm=0 / deadzone=21,11 / fast_pskip=0 / chroma_qp_offset=-3 / threads=18 / lookahead_threads=3 / sliced_threads=0 / nr=0 / decimate=0 / interlaced=0 / bluray_compat=0 / constrained_intra=0 / fgo=0 / bframes=10 / b_pyramid=2 / b_adapt=2 / b_bias=0 / direct=3 / weightb=1 / open_gop=0 / weightp=2 / keyint=250 / keyint_min=23 / scenecut=40 / intra_refresh=0 / rc=2pass / mbtree=0 / bitrate=11456 / ratetol=1.0 / qcomp=0.70 / qpmin=0 / qpmax=69 / qpstep=4 / cplxblur=20.0 / qblur=0.5 / ip_ratio=1.40 / pb_ratio=1.30 / aq=1 / aq-strength=0.90 / aq-sensitivity=10.00 / aq-ifactor=1.00 / aq-pfactor=1.00 / aq-bfactor=1.00 / aq2=0
  25. Language                                 : Japanese
  26. Default                                  : Yes
  27. Forced                                   : No

  28. Audio
  29. ID                                       : 2
  30. Format                                   : DTS
  31. Format/Info                              : Digital Theater Systems
  32. Codec ID                                 : A_DTS
  33. Duration                                 : 1 h 39 min
  34. Bit rate mode                            : Constant
  35. Bit rate                                 : 1 509 kb/s
  36. Channel(s)                               : 6 channels
  37. Channel layout                           : C L R Ls Rs LFE
  38. Sampling rate                            : 48.0 kHz
  39. Frame rate                               : 93.750 FPS (512 SPF)
  40. Bit depth                                : 24 bits
  41. Compression mode                         : Lossy
  42. Stream size                              : 1.05 GiB (12%)
  43. Language                                 : Japanese
  44. Default                                  : Yes
  45. Forced                                   : No

  46. Text #1
  47. ID                                       : 3
  48. Format                                   : UTF-8
  49. Codec ID                                 : S_TEXT/UTF8
  50. Codec ID/Info                            : UTF-8 Plain Text
  51. Duration                                 : 1 h 37 min
  52. Bit rate                                 : 39 b/s
  53. Count of elements                        : 1296
  54. Stream size                              : 27.8 KiB (0%)
  55. Language                                 : English
  56. Default                                  : Yes
  57. Forced                                   : No

  58. Text #2
  59. ID                                       : 4
  60. Format                                   : ASS
  61. Codec ID                                 : S_TEXT/ASS
  62. Codec ID/Info                            : Advanced Sub Station Alpha
  63. Duration                                 : 1 h 38 min
  64. Bit rate                                 : 73 b/s
  65. Count of elements                        : 1304
  66. Compression mode                         : Lossless
  67. Stream size                              : 53.0 KiB (0%)
  68. Title                                    : Simplified
  69. Language                                 : Chinese
  70. Default                                  : No
  71. Forced                                   : No

  72. Text #3
  73. ID                                       : 5
  74. Format                                   : ASS
  75. Codec ID                                 : S_TEXT/ASS
  76. Codec ID/Info                            : Advanced Sub Station Alpha
  77. Duration                                 : 1 h 38 min
  78. Bit rate                                 : 73 b/s
  79. Count of elements                        : 1304
  80. Compression mode                         : Lossless
  81. Stream size                              : 53.0 KiB (0%)
  82. Title                                    : Traditional
  83. Language                                 : Chinese
  84. Default                                  : No
  85. Forced                                   : No

  86. Menu
  87. 00:00:00.000                             : en:00:00:00.000
  88. 00:00:22.897                             : en:00:00:22.897
  89. 00:08:44.023                             : en:00:08:44.023
  90. 00:14:29.285                             : en:00:14:29.285
  91. 00:24:36.516                             : en:00:24:36.516
  92. 00:40:51.448                             : en:00:40:51.448
  93. 00:53:19.196                             : en:00:53:19.196
  94. 01:07:20.953                             : en:01:07:20.953
  95. 01:18:58.775                             : en:01:18:58.775
  96. 01:32:18.532                             : en:01:32:18.532
复制代码


精彩剧照




蓝光高清网提示您 点击下方附件名称 马上开始下载



温馨提示:
本站资源优先使用迅雷下载,迅雷会员下载,速度基本可以跑满宽带
如果遇到无资源或者版权问题无法下载,推荐使用115网盘离线下载(点击查看115网盘离线下载教程


  • 该资源需要您回复以后 刷新网页进行下载操作

  • 1、My.Brother.Loves.Me.Too.Much.2017.JAPANESE.1080p.BluRay.x264.DTS-iKiW.torrent 46KB 已下载 0 次

加入蓝光高清网VIP会员  无限制下载本站所有资源---点此加入

资源下载、资源播放、字幕使用、无法下载等常见问题---点这里

回复

使用道具 举报

精彩评论5

huangyg1976 发表于 2020-2-22 07:36:48 | 显示全部楼层
非常感谢蓝光高清网给大家的享乐4k,祝蓝光高清网越办越好!

加入蓝光高清网VIP会员  无限制下载本站所有资源---点此加入

资源下载、资源播放、字幕使用、无法下载等常见问题---点这里

回复

使用道具 举报

一程风雨 发表于 2020-2-22 09:02:48 | 显示全部楼层
身体健康,天天开心,祝蓝光高清网越办越红火

加入蓝光高清网VIP会员  无限制下载本站所有资源---点此加入

资源下载、资源播放、字幕使用、无法下载等常见问题---点这里

回复

使用道具 举报

nekomao 发表于 2020-2-22 10:39:09 | 显示全部楼层
祝蓝光高清网越办越红火。

加入蓝光高清网VIP会员  无限制下载本站所有资源---点此加入

资源下载、资源播放、字幕使用、无法下载等常见问题---点这里

回复

使用道具 举报

zhc&angle 发表于 2020-2-22 11:14:34 | 显示全部楼层
身体健康,天天开心,祝蓝光高清网越办越红火

加入蓝光高清网VIP会员  无限制下载本站所有资源---点此加入

资源下载、资源播放、字幕使用、无法下载等常见问题---点这里

回复

使用道具 举报

向上人生路 发表于 2020-2-22 12:02:38 | 显示全部楼层
感谢楼主分享

加入蓝光高清网VIP会员  无限制下载本站所有资源---点此加入

资源下载、资源播放、字幕使用、无法下载等常见问题---点这里

回复

使用道具 举报

您需要登录后才可以回帖 登录 | 立即注册

本版积分规则

关注0

粉丝0

帖子80367

发布主题
最新电影 论坛
本期活动
联系我们
点击这里联系客服

服务时间:
周一到周日8:00-23:30

  • 打开微信扫一扫
    关注公众号

  • 手机QQ扫一扫
    添加客服

手机版蓝光高清网 ( 渝ICP备18006373号-2 )|网站地图

Powered by Discuz! X3.4  © 2001-2013 Comsenz Inc.