[剧情] 奇迹那天如此重要 Kiseki.Sobito.of.That.Day.2017.JAPANESE.1080p.BluRay.x264.DTS-iKiW 9.00GB

[复制链接]
蓝鸟 发表于 2020-2-21 23:22:29 | 显示全部楼层 |阅读模式 打印 上一主题 下一主题


译  名 奇迹,那天如此重要 / Kiseki: Sobito of That Day / 唱吧!奇迹!(台) / 唱吧!奇迹!GReeeeN乐团 / 奇跡,降临的一天(港) / 奇迹:那天的素人
片  名 キセキ―あの日のソビト―
年  代 2017
产  地 日本
类  别 剧情 / 喜剧 / 音乐
语  言 日语
上映日期 2017-01-28(日本)
IMDb评分  6.5/10 from 205 users
IMDb链接  https://www.imdb.com/title/tt5778092
豆瓣评分 7.7/10 from 13750 users
豆瓣链接 https://movie.douban.com/subject/26809007/
片  长 111分钟
导  演 兼重淳 Atsushi Kaneshige
编  剧 齐藤浩史 Hiroshi Sait?
主  演 松坂桃李 T?ri Matsuzaka
       菅田将晖 Masaki Suda
       忽那汐里 Kutsuna Shiori
       平祐奈 Yuna Taira
       横浜流星 Ry?sei Yokohama
       成田凌 Ryo Narita
       杉野遥亮 Yosuke Sugino
       小出早织 Saori Koide
       奥野瑛太 Eita Okuno
       野间口彻 T?ru Nomaguchi
       麻生祐未 Yumi As?
       小林薰 Kaoru Kobayashi


标  签 日本 | 音乐 | 青春 | 梦想 | 2017 | 成长 | 真实事件改编 | 励志

简  介  

  仁(松坂桃李 饰)和秀(菅田将晖 饰)出生于医生世家,他们的父亲是一位德高望重的医生,希望两个儿子长大后能够继承自己的事业。然而,叛逆桀骜的仁却并没有那份医者的仁心,热爱音乐的他组建了一支乐队,并且在演出中被音乐经纪人相中,他决定正式出道成为一名歌手。
  仁的决定让他和父亲之间爆发出了激烈的争吵,最终,仁决绝的离开了家。在哥哥和父亲的关系降到冰点的那段日子里,温柔的秀正在艰苦的进行着备考,成绩不算优异的他最终选择了牙科大学作为奋斗的目标。仁的音乐道路走得十分不顺利,各种利益的冲突让他和队友们之间亦产生了隔阂。而顺利考入了大学的秀,在某日拿起哥哥的吉他之后忽然发现了音乐带给他的抚慰和力量。

获奖情况  

  第41届日本电影学院奖(2018)
  最佳配乐(提名) Jin

  第42届报知映画赏(2017)
  最佳男主角 菅田将晖

  第4届豆瓣电影年度榜单(2017)
  评分最高的日本电影(提名)


该资源信息参数
  1. Video
  2. ID                                       : 1
  3. Format                                   : AVC
  4. Format/Info                              : Advanced Video Codec
  5. Format profile                           : High@L4
  6. Format settings                          : CABAC / 4 Ref Frames
  7. Format settings, CABAC                   : Yes
  8. Format settings, Reference frames        : 4 frames
  9. Codec ID                                 : V_MPEG4/ISO/AVC
  10. Duration                                 : 1 h 51 min
  11. Bit rate                                 : 10.0 Mb/s
  12. Width                                    : 1 920 pixels
  13. Height                                   : 1 038 pixels
  14. Display aspect ratio                     : 1.85:1
  15. Frame rate mode                          : Constant
  16. Frame rate                               : 23.976 (24000/1001) FPS
  17. Color space                              : YUV
  18. Chroma subsampling                       : 4:2:0
  19. Bit depth                                : 8 bits
  20. Scan type                                : Progressive
  21. Bits/(Pixel*Frame)                       : 0.210
  22. Stream size                              : 7.81 GiB (87%)
  23. Writing library                          : x264 core 129 r2245+704+36 8e61944 tMod+MixAQ [High@L4:2:0 X86_64]
  24. Encoding settings                        : cabac=1 / ref=4 / deblock=1:-3:-3 / analyse=0x3:0x133 / me=umh / subme=11 / psy=1 / fade_compensate=0.00 / psy_rd=1.05:0.10 / mixed_ref=1 / me_range=32 / chroma_me=1 / trellis=2 / 8x8dct=1 / cqm=0 / deadzone=21,11 / fast_pskip=0 / chroma_qp_offset=-3 / threads=18 / lookahead_threads=3 / sliced_threads=0 / nr=0 / decimate=0 / interlaced=0 / bluray_compat=0 / constrained_intra=0 / fgo=0 / bframes=10 / b_pyramid=2 / b_adapt=2 / b_bias=0 / direct=3 / weightb=1 / open_gop=0 / weightp=2 / keyint=250 / keyint_min=23 / scenecut=40 / intra_refresh=0 / rc=2pass / mbtree=0 / bitrate=10028 / ratetol=1.0 / qcomp=0.70 / qpmin=0 / qpmax=69 / qpstep=4 / cplxblur=20.0 / qblur=0.5 / ip_ratio=1.40 / pb_ratio=1.30 / aq=1 / aq-strength=0.90 / aq-sensitivity=10.00 / aq-ifactor=1.00 / aq-pfactor=1.00 / aq-bfactor=1.00 / aq2=0
  25. Language                                 : Japanese
  26. Default                                  : Yes
  27. Forced                                   : No

  28. Audio
  29. ID                                       : 2
  30. Format                                   : DTS
  31. Format/Info                              : Digital Theater Systems
  32. Codec ID                                 : A_DTS
  33. Duration                                 : 1 h 51 min
  34. Bit rate mode                            : Constant
  35. Bit rate                                 : 1 509 kb/s
  36. Channel(s)                               : 6 channels
  37. Channel layout                           : C L R Ls Rs LFE
  38. Sampling rate                            : 48.0 kHz
  39. Frame rate                               : 93.750 FPS (512 SPF)
  40. Bit depth                                : 16 bits
  41. Compression mode                         : Lossy
  42. Stream size                              : 1.18 GiB (13%)
  43. Language                                 : Japanese
  44. Default                                  : Yes
  45. Forced                                   : No

  46. Text #1
  47. ID                                       : 3
  48. Format                                   : UTF-8
  49. Codec ID                                 : S_TEXT/UTF8
  50. Codec ID/Info                            : UTF-8 Plain Text
  51. Duration                                 : 1 h 45 min
  52. Bit rate                                 : 45 b/s
  53. Count of elements                        : 1307
  54. Stream size                              : 34.8 KiB (0%)
  55. Language                                 : English
  56. Default                                  : Yes
  57. Forced                                   : No

  58. Text #2
  59. ID                                       : 4
  60. Format                                   : ASS
  61. Codec ID                                 : S_TEXT/ASS
  62. Codec ID/Info                            : Advanced Sub Station Alpha
  63. Duration                                 : 1 h 51 min
  64. Bit rate                                 : 79 b/s
  65. Count of elements                        : 1622
  66. Compression mode                         : Lossless
  67. Stream size                              : 64.6 KiB (0%)
  68. Title                                    : Simplified
  69. Language                                 : Chinese
  70. Default                                  : No
  71. Forced                                   : No

  72. Text #3
  73. ID                                       : 5
  74. Format                                   : ASS
  75. Codec ID                                 : S_TEXT/ASS
  76. Codec ID/Info                            : Advanced Sub Station Alpha
  77. Duration                                 : 1 h 51 min
  78. Bit rate                                 : 79 b/s
  79. Count of elements                        : 1622
  80. Compression mode                         : Lossless
  81. Stream size                              : 64.6 KiB (0%)
  82. Title                                    : Traditional
  83. Language                                 : Chinese
  84. Default                                  : No
  85. Forced                                   : No

  86. Menu
  87. 00:00:00.000                             : en:00:00:00.000
  88. 00:09:22.019                             : en:00:09:22.019
  89. 00:13:09.413                             : en:00:13:09.413
  90. 00:18:54.758                             : en:00:18:54.758
  91. 00:25:07.547                             : en:00:25:07.547
  92. 00:30:51.641                             : en:00:30:51.641
  93. 00:37:26.327                             : en:00:37:26.327
  94. 00:45:31.228                             : en:00:45:31.228
  95. 00:51:23.705                             : en:00:51:23.705
  96. 00:58:20.497                             : en:00:58:20.497
  97. 01:08:36.612                             : en:01:08:36.612
  98. 01:16:29.334                             : en:01:16:29.334
  99. 01:26:12.000                             : en:01:26:12.000
  100. 01:31:38.784                             : en:01:31:38.784
  101. 01:38:20.102                             : en:01:38:20.102
  102. 01:46:28.715                             : en:01:46:28.715
  103. 01:51:29.683                             : en:01:51:29.683
复制代码


精彩剧照




蓝光高清网提示您 点击下方附件名称 马上开始下载



温馨提示:
本站资源优先使用迅雷下载,迅雷会员下载,速度基本可以跑满宽带
如果遇到无资源或者版权问题无法下载,推荐使用115网盘离线下载(点击查看115网盘离线下载教程


  • 该资源需要您回复以后 刷新网页进行下载操作

  • 1、Kiseki.Sobito.of.That.Day.2017.JAPANESE.1080p.BluRay.x264.DTS-iKiW.torrent 46KB 已下载 1 次

加入蓝光高清网VIP会员  无限制下载本站所有资源---点此加入

资源下载、资源播放、字幕使用、无法下载等常见问题---点这里

回复

使用道具 举报

精彩评论8

nb5vo6 发表于 2020-2-22 06:05:15 | 显示全部楼层
好资源,顶一个

加入蓝光高清网VIP会员  无限制下载本站所有资源---点此加入

资源下载、资源播放、字幕使用、无法下载等常见问题---点这里

回复

使用道具 举报

zxacjs110 发表于 2020-2-22 06:15:24 | 显示全部楼层
非常感谢蓝光高清网给大家的享乐4k,祝蓝光高清网越办越好!

加入蓝光高清网VIP会员  无限制下载本站所有资源---点此加入

资源下载、资源播放、字幕使用、无法下载等常见问题---点这里

回复

使用道具 举报

kelor 发表于 2020-2-22 06:40:40 | 显示全部楼层
祝大家身体健康,团结一致,抗击疫情

加入蓝光高清网VIP会员  无限制下载本站所有资源---点此加入

资源下载、资源播放、字幕使用、无法下载等常见问题---点这里

回复

使用道具 举报

puteboy 发表于 2020-2-22 07:11:25 | 显示全部楼层
非常感谢蓝光高清网给大家的享乐4k,祝蓝光高清网越办越好!

加入蓝光高清网VIP会员  无限制下载本站所有资源---点此加入

资源下载、资源播放、字幕使用、无法下载等常见问题---点这里

回复

使用道具 举报

麥格飛 发表于 2020-2-22 07:21:31 | 显示全部楼层
身体健康,天天开心,祝蓝光高清网越办越红火

加入蓝光高清网VIP会员  无限制下载本站所有资源---点此加入

资源下载、资源播放、字幕使用、无法下载等常见问题---点这里

回复

使用道具 举报

cq1980 发表于 2020-2-22 09:28:01 | 显示全部楼层
祝蓝光高清网越来越棒,希望大家都来蓝光高清网下载。

加入蓝光高清网VIP会员  无限制下载本站所有资源---点此加入

资源下载、资源播放、字幕使用、无法下载等常见问题---点这里

回复

使用道具 举报

hygxyxkg 发表于 2020-2-22 10:49:19 | 显示全部楼层
近期肺炎闹得挺厉害,大家伙还是多访问访问蓝光高清网,为国家做贡献。访问蓝光高清网,就是为国出力

加入蓝光高清网VIP会员  无限制下载本站所有资源---点此加入

资源下载、资源播放、字幕使用、无法下载等常见问题---点这里

回复

使用道具 举报

12012cn 发表于 2020-2-22 11:19:35 | 显示全部楼层
祝蓝光高清网越办越红火。

加入蓝光高清网VIP会员  无限制下载本站所有资源---点此加入

资源下载、资源播放、字幕使用、无法下载等常见问题---点这里

回复

使用道具 举报

您需要登录后才可以回帖 登录 | 立即注册

本版积分规则

关注0

粉丝0

帖子80367

发布主题
最新电影 论坛
本期活动
联系我们
点击这里联系客服

服务时间:
周一到周日8:00-23:30

  • 打开微信扫一扫
    关注公众号

  • 手机QQ扫一扫
    添加客服

手机版蓝光高清网 ( 渝ICP备18006373号-2 )|网站地图

Powered by Discuz! X3.4  © 2001-2013 Comsenz Inc.