[动作] 大醉俠 Come.Drink.With.Me.1966.CHINESE.1080p.BluRay.x264.DTS-FGT 9.62GB

[复制链接]
蓝鸟 发表于 2020-2-21 23:24:49 | 显示全部楼层 |阅读模式 打印 上一主题 下一主题


译  名 大醉侠 / Come Drink with Me / 醉侠
片  名 大醉俠
年  代 1966
产  地 中国香港
类  别 动作 / 武侠 / 古装
语  言 汉语普通话
上映日期 1966-04-07(中国香港)
IMDb评分  6.9/10 from 3430 users
IMDb链接  https://www.imdb.com/title/tt0059079
豆瓣评分 7.5/10 from 6280 users
豆瓣链接 https://movie.douban.com/subject/1301946/
片  长 95分钟
导  演 胡金铨 King Hu
编  剧 胡金铨 King Hu / 丁善玺 Shan-hsi Ting
主  演 郑佩佩 Pei-pei Cheng
       岳华 Hua Yueh
       杨志卿 Chih-Ching Yang
       陈鸿烈 Hung Lieh Chen
       韩英杰 Ying-Chieh Han
       沈涝
       林健全
       谷峰 Feng Ku
       李允中 Yunzhong Li


标  签 胡金铨 | 香港 | 武侠 | 邵氏 | 郑佩佩 | 香港电影 | 1966 | 动作

简  介  

  江湖败类“索命五虎”作恶多端,杀人如麻。其老大被两江总督张大人俘获,不日问斩。其余四虎铤而走险,劫走张大人之子张步青以作要挟。张步青之妹张熙燕(郑佩佩 饰)武艺高强,人送绰号“金燕子”。为救兄长,张熙燕独闯虎穴,然恶徒狡猾非常,金燕子救兄不成,还险些丢掉性命。关键时刻,幸得隐于江湖的侠客范大悲(岳华 饰)出手搭救。
  范大悲曾为某寺院修行者,其师兄了空大师为夺掌门人之位杀害师傅,师傅临死前将丐帮掌门人信物交给范大悲。念及师兄弟之情,范从此隐姓埋名,以醉猫的诨号浪荡江湖。此次索命五虎与了空大师联手,势要将金燕子和范大悲斩草除根……


该资源信息参数
  1. Video
  2. ID                                       : 1
  3. Format                                   : AVC
  4. Format/Info                              : Advanced Video Codec
  5. Format profile                           : High@L4
  6. Format settings                          : CABAC / 4 Ref Frames
  7. Format settings, CABAC                   : Yes
  8. Format settings, Reference frames        : 4 frames
  9. Codec ID                                 : V_MPEG4/ISO/AVC
  10. Duration                                 : 1 h 34 min
  11. Bit rate                                 : 11.5 Mb/s
  12. Width                                    : 1 916 pixels
  13. Height                                   : 816 pixels
  14. Display aspect ratio                     : 2.35:1
  15. Frame rate mode                          : Constant
  16. Frame rate                               : 23.976 (24000/1001) FPS
  17. Color space                              : YUV
  18. Chroma subsampling                       : 4:2:0
  19. Bit depth                                : 8 bits
  20. Scan type                                : Progressive
  21. Bits/(Pixel*Frame)                       : 0.307
  22. Stream size                              : 7.61 GiB (79%)
  23. Title                                    : Come.Drink.With.Me.1966.CHINESE.1080p.BluRay.x264.DTS-FGT
  24. Writing library                          : x264 core 148 r2748 97eaef2
  25. Encoding settings                        : cabac=1 / ref=4 / deblock=1:-2:-2 / analyse=0x3:0x113 / me=umh / subme=9 / psy=1 / psy_rd=1.00:0.15 / mixed_ref=1 / me_range=16 / chroma_me=1 / trellis=2 / 8x8dct=1 / cqm=0 / deadzone=21,11 / fast_pskip=1 / chroma_qp_offset=-3 / threads=24 / lookahead_threads=3 / sliced_threads=0 / nr=0 / decimate=1 / interlaced=0 / bluray_compat=0 / constrained_intra=0 / bframes=3 / b_pyramid=2 / b_adapt=1 / b_bias=0 / direct=3 / weightb=1 / open_gop=0 / weightp=2 / keyint=250 / keyint_min=25 / scenecut=40 / intra_refresh=0 / rc_lookahead=50 / rc=2pass / mbtree=1 / bitrate=11500 / ratetol=1.0 / qcomp=0.60 / qpmin=0 / qpmax=69 / qpstep=4 / cplxblur=20.0 / qblur=0.5 / vbv_maxrate=31250 / vbv_bufsize=31250 / nal_hrd=none / filler=0 / ip_ratio=1.40 / aq=1:1.00
  26. Language                                 : English
  27. Default                                  : Yes
  28. Forced                                   : No

  29. Audio #1
  30. ID                                       : 2
  31. Format                                   : DTS
  32. Format/Info                              : Digital Theater Systems
  33. Codec ID                                 : A_DTS
  34. Duration                                 : 1 h 34 min
  35. Bit rate mode                            : Constant
  36. Bit rate                                 : 1 509 kb/s
  37. Channel(s)                               : 2 channels
  38. Channel layout                           : L R
  39. Sampling rate                            : 48.0 kHz
  40. Frame rate                               : 93.750 FPS (512 SPF)
  41. Bit depth                                : 16 bits
  42. Compression mode                         : Lossy
  43. Stream size                              : 1 023 MiB (10%)
  44. Title                                    : Come.Drink.With.Me.1966.CHINESE.1080p.BluRay.x264.DTS-FGT
  45. Language                                 : Chinese
  46. Default                                  : Yes
  47. Forced                                   : No

  48. Audio #2
  49. ID                                       : 3
  50. Format                                   : DTS
  51. Format/Info                              : Digital Theater Systems
  52. Codec ID                                 : A_DTS
  53. Duration                                 : 1 h 34 min
  54. Bit rate mode                            : Constant
  55. Bit rate                                 : 1 509 kb/s
  56. Channel(s)                               : 2 channels
  57. Channel layout                           : L R
  58. Sampling rate                            : 48.0 kHz
  59. Frame rate                               : 93.750 FPS (512 SPF)
  60. Bit depth                                : 16 bits
  61. Compression mode                         : Lossy
  62. Stream size                              : 1 023 MiB (10%)
  63. Title                                    : Come.Drink.With.Me.1966.CHINESE.1080p.BluRay.x264.DTS-FGT
  64. Language                                 : English
  65. Default                                  : No
  66. Forced                                   : No

  67. Text
  68. ID                                       : 4
  69. Format                                   : UTF-8
  70. Codec ID                                 : S_TEXT/UTF8
  71. Codec ID/Info                            : UTF-8 Plain Text
  72. Duration                                 : 1 h 33 min
  73. Bit rate                                 : 30 b/s
  74. Count of elements                        : 679
  75. Stream size                              : 21.0 KiB (0%)
  76. Language                                 : English
  77. Default                                  : Yes
  78. Forced                                   : No

  79. Menu
  80. 00:00:00.000                             : en:Chapter 01
  81. 00:01:34.511                             : en:Chapter 02
  82. 00:08:28.383                             : en:Chapter 03
  83. 00:20:50.249                             : en:Chapter 04
  84. 00:33:08.778                             : en:Chapter 05
  85. 00:46:30.663                             : en:Chapter 06
  86. 00:57:52.052                             : en:Chapter 07
  87. 01:08:40.658                             : en:Chapter 08
  88. 01:21:20.250                             : en:Chapter 09
  89. 01:29:45.213                             : en:Chapter 10
复制代码


精彩剧照




蓝光高清网提示您 点击下方附件名称 马上开始下载



温馨提示:
本站资源优先使用迅雷下载,迅雷会员下载,速度基本可以跑满宽带
如果遇到无资源或者版权问题无法下载,推荐使用115网盘离线下载(点击查看115网盘离线下载教程


  • 该资源需要您回复以后 刷新网页进行下载操作

  • 1、Come.Drink.With.Me.1966.CHINESE.1080p.BluRay.x264.DTS-FGT.torrent 49KB 已下载 1 次

加入蓝光高清网VIP会员  无限制下载本站所有资源---点此加入

资源下载、资源播放、字幕使用、无法下载等常见问题---点这里

回复

使用道具 举报

精彩评论3

ourbj 发表于 2020-2-22 06:56:13 | 显示全部楼层
非常感谢蓝光高清网给大家的享乐4k,祝蓝光高清网越办越好!

加入蓝光高清网VIP会员  无限制下载本站所有资源---点此加入

资源下载、资源播放、字幕使用、无法下载等常见问题---点这里

回复

使用道具 举报

duyantianlun 发表于 2020-2-22 08:37:31 | 显示全部楼层
祝蓝光高清网越来越棒,希望大家都来蓝光高清网下载。

加入蓝光高清网VIP会员  无限制下载本站所有资源---点此加入

资源下载、资源播放、字幕使用、无法下载等常见问题---点这里

回复

使用道具 举报

gie 发表于 2020-2-22 11:04:26 | 显示全部楼层
非常感谢蓝光高清网给大家的享乐4k,祝蓝光高清网越办越好!

加入蓝光高清网VIP会员  无限制下载本站所有资源---点此加入

资源下载、资源播放、字幕使用、无法下载等常见问题---点这里

回复

使用道具 举报

您需要登录后才可以回帖 登录 | 立即注册

本版积分规则

关注0

粉丝0

帖子80367

发布主题
最新电影 论坛
本期活动
联系我们
点击这里联系客服

服务时间:
周一到周日8:00-23:30

  • 打开微信扫一扫
    关注公众号

  • 手机QQ扫一扫
    添加客服

手机版蓝光高清网 ( 渝ICP备18006373号-2 )|网站地图

Powered by Discuz! X3.4  © 2001-2013 Comsenz Inc.