[剧情] 原钻/未切割宝石 Uncut.Gems.2019.1080p.BluRay.x264-YOL0W 9.86GB

[复制链接]
蓝鸟 发表于 2020-2-29 09:33:32 | 显示全部楼层 |阅读模式 打印 上一主题 下一主题

原钻/未切割宝石 Uncut.Gems.2019.1080p.BluRay.x264-YOL0W 9.86GB

原钻/未切割宝石 Uncut.Gems.2019.1080p.BluRay.x264-YOL0W 9.86GB


译  名 原钻 / 未切割宝石 / 未切割的宝石 / 未切割的钻石 / 未成大器 / 未琢之石(豆友译名)
片  名 Uncut Gems
年  代 2019
产  地 美国
类  别 剧情 / 犯罪
语  言 英语
上映日期 2019-08-30(特柳赖德电影节) / 2019-12-25(美国) / 2020-01-31(Netflix)
IMDb评分  7.7/10 from 89629 users
IMDb链接  https://www.imdb.com/title/tt5727208
豆瓣评分 7.2/10 from 12016 users
豆瓣链接 https://movie.douban.com/subject/27045860/
片  长 135分钟
导  演 本·萨弗迪 Ben Safdie / 约书亚·萨弗迪 Joshua Safdie
编  剧 罗纳德·布隆斯坦 Ronald Bronstein / 本·萨弗迪 Ben Safdie / 约书亚·萨弗迪 Joshua Safdie
主  演 亚当·桑德勒 Adam Sandler
       茱莉娅·福克斯 Julia Fox
       凯文·加内特 Kevin Garnett
       威肯 The Weeknd
       伊迪娜·门泽尔 Idina Menzel
       乔纳森·阿兰巴耶夫 Jonathan Aranbayev
       雅各布·伊吉尔斯基 Jacob Igielski
       诺亚·费舍尔 Noa Fisher
       帕洛玛·艾尔瑟瑟 Paloma Elsesser
       勒凯斯·斯坦菲尔德 Lakeith Stanfield
       埃里克·博高森 Eric Bogosian
       基思·威廉姆斯·理查兹 Keith Williams Richards
       汤米·科米尼克 Tommy Kominik
       路易·安东尼·阿里亚斯 Louis Anthony Arias
       肖恩·林金 Sean Ringgold
       贾德·赫希 Judd Hirsch
       约翰·阿莫斯 John Amos
       布莱斯·科里根 Blaise Corrigan
       罗比·德拉费勒 Robbie DeRaffele
       安赫·道格 Anh Duong
       迈克·弗朗西萨 Mike Francesa
       庞·克莱门捷夫 Pom Klementieff
       娜塔莎·雷昂 Natasha Lyonne
       乔恩·内卡杰 Jon Necaj
       尼克·波托兰宁 Nick Poltoranin
       杰克·莱恩 Jake Ryan
       蒂尔达·斯文顿 Tilda Swinton


标  签 美国 | 犯罪 | 2019 | 剧情 | 黑色幽默 | 悬疑 | 喜剧 | 黑色

简  介  

  影片讲述了一位纽约钻石店老板Howard Ratner(亚当·桑德勒饰),他嗜赌成瘾,婚姻岌岌可危,还有一个对他不忠诚的女友。Howard Ratner欠赌徒(埃里克勃格森饰)钱,而打手们也一直威胁着让他还钱。当他买了一批价值数百万美元的稀有的未切割埃塞俄比亚蛋白石,他觉得自己的霉运会就此终结。这些石头本来是打算用做拍卖的,但是当波士顿凯尔特人超级球星凯文·加内特走进宝石店,希望租下这些石头,因为它们可以给他在NBA总决赛上带来好运,事态也就越发复杂了起来 。

获奖情况  

  第40届金酸莓奖(2020)
  最佳赎莓奖(提名) 亚当·桑德勒

  第85届纽约影评人协会奖(2019)
  最佳导演 本·萨弗迪 / 约书亚·萨弗迪

  第91届美国国家评论协会奖(2019)
  最佳男主角 亚当·桑德勒
  最佳原创剧本 约书亚·萨弗迪 / 罗纳德·布隆斯坦 / 本·萨弗迪
  年度佳片

  第25届美国评论家选择电影奖(2020)
  最佳影片(提名)
  最佳导演(提名) 约书亚·萨弗迪 / 本·萨弗迪
  最佳男主角(提名) 亚当·桑德勒
  最佳剪辑(提名)

  第35届美国独立精神奖(2020)
  最佳影片(提名)
  最佳导演 本·萨弗迪 / 约书亚·萨弗迪
  最佳男主角 亚当·桑德勒
  最佳剧本(提名) 本·萨弗迪 / 罗纳德·布隆斯坦 / 约书亚·萨弗迪
  最佳剪辑

  第29届哥谭独立电影奖(2019)
  最佳影片(提名)
  最佳男演员(提名) 亚当·桑德勒
  年度突破演员(提名) 茱莉娅·福克斯

  第24届金卫星奖(2020)
  电影部门 最佳喜剧/音乐片(提名)
  电影部门 喜剧/音乐片最佳男主角(提名) 亚当·桑德勒

  第54届美国国家影评人协会奖(2020)
  最佳男主角(提名) 亚当·桑德勒

  第40届波士顿影评人协会奖(2019)
  最佳男主角 亚当·桑德勒
  最佳剪辑(提名) 本·萨弗迪 / 罗纳德·布隆斯坦

  第45届洛杉矶影评人协会奖(2019)
  最佳剪辑(提名)

  第32届芝加哥影评人协会奖(2019)
  最佳男主角(提名) 亚当·桑德勒
  最佳剪辑(提名)
  最佳原创配乐(提名) 丹尼尔·罗帕汀
  最具潜力演员(提名) 茱莉娅·福克斯

  第4届亚特兰大影评人协会奖(2019)
  十佳影片

  第23届美国在线影评人协会奖(2020)
  最佳影片(提名)
  最佳男主角(提名) 亚当·桑德勒


该资源信息参数
  1. Video
  2. ID                                       : 1
  3. Format                                   : AVC
  4. Format/Info                              : Advanced Video Codec
  5. Format profile                           : High@L4
  6. Format settings                          : CABAC / 5 Ref Frames
  7. Format settings, CABAC                   : Yes
  8. Format settings, Reference frames        : 5 frames
  9. Codec ID                                 : V_MPEG4/ISO/AVC
  10. Duration                                 : 2 h 15 min
  11. Bit rate                                 : 8 909 kb/s
  12. Width                                    : 1 920 pixels
  13. Height                                   : 808 pixels
  14. Display aspect ratio                     : 2.40:1
  15. Frame rate mode                          : Constant
  16. Frame rate                               : 23.976 (24000/1001) FPS
  17. Color space                              : YUV
  18. Chroma subsampling                       : 4:2:0
  19. Bit depth                                : 8 bits
  20. Scan type                                : Progressive
  21. Bits/(Pixel*Frame)                       : 0.240
  22. Stream size                              : 8.41 GiB (85%)
  23. Writing library                          : x264 core 159 r2991 1771b55
  24. Encoding settings                        : cabac=1 / ref=5 / deblock=1:-2:-2 / analyse=0x3:0x133 / me=umh / subme=8 / psy=1 / psy_rd=1.00:0.00 / mixed_ref=1 / me_range=16 / chroma_me=1 / trellis=2 / 8x8dct=1 / cqm=0 / deadzone=21,11 / fast_pskip=0 / chroma_qp_offset=-2 / threads=24 / lookahead_threads=4 / sliced_threads=0 / nr=0 / decimate=1 / interlaced=0 / bluray_compat=0 / constrained_intra=0 / bframes=3 / b_pyramid=2 / b_adapt=2 / b_bias=0 / direct=3 / weightb=1 / open_gop=0 / weightp=2 / keyint=230 / keyint_min=23 / scenecut=40 / intra_refresh=0 / rc_lookahead=60 / rc=2pass / mbtree=1 / bitrate=8909 / ratetol=1.0 / qcomp=0.60 / qpmin=0 / qpmax=69 / qpstep=4 / cplxblur=20.0 / qblur=0.5 / ip_ratio=1.40 / aq=1:1.00
  25. Language                                 : English
  26. Default                                  : Yes
  27. Forced                                   : No
  28. Color range                              : Limited
  29. Matrix coefficients                      : BT.709

  30. Audio
  31. ID                                       : 2
  32. Format                                   : DTS
  33. Format/Info                              : Digital Theater Systems
  34. Codec ID                                 : A_DTS
  35. Duration                                 : 2 h 15 min
  36. Bit rate mode                            : Constant
  37. Bit rate                                 : 1 509 kb/s
  38. Channel(s)                               : 6 channels
  39. Channel layout                           : C L R Ls Rs LFE
  40. Sampling rate                            : 48.0 kHz
  41. Frame rate                               : 93.750 FPS (512 SPF)
  42. Bit depth                                : 24 bits
  43. Compression mode                         : Lossy
  44. Stream size                              : 1.42 GiB (14%)
  45. Title                                    : English
  46. Language                                 : English
  47. Default                                  : Yes
  48. Forced                                   : No

  49. Menu
  50. 00:00:00.000                             : en:Chapter 01
  51. 00:08:37.475                             : en:Chapter 02
  52. 00:18:26.605                             : en:Chapter 03
  53. 00:23:23.277                             : en:Chapter 04
  54. 00:31:56.123                             : en:Chapter 05
  55. 00:36:06.039                             : en:Chapter 06
  56. 00:43:14.342                             : en:Chapter 07
  57. 00:51:10.234                             : en:Chapter 08
  58. 00:57:30.363                             : en:Chapter 09
  59. 01:03:09.035                             : en:Chapter 10
  60. 01:11:49.430                             : en:Chapter 11
  61. 01:21:41.939                             : en:Chapter 12
  62. 01:31:03.291                             : en:Chapter 13
  63. 01:42:45.492                             : en:Chapter 14
  64. 01:49:37.112                             : en:Chapter 15
  65. 02:00:15.333                             : en:Chapter 16
复制代码


精彩剧照

原钻/未切割宝石 Uncut.Gems.2019.1080p.BluRay.x264-YOL0W 9.86GB

原钻/未切割宝石 Uncut.Gems.2019.1080p.BluRay.x264-YOL0W 9.86GB



蓝光高清网提示您 点击下方附件名称 马上开始下载

原钻/未切割宝石 Uncut.Gems.2019.1080p.BluRay.x264-YOL0W 9.86GB
Uncut.Gems.2019.1080p.BluRay.x264-YOL0W.torrent 
         (50.14 KB    阅读权限: 0)
加入蓝光高清网VIP会员  无限制下载本站所有资源---点这里

资源下载、资源播放、字幕使用、无法下载等常见问题---点这里
回复

使用道具 举报

精彩评论63

電腦小子 发表于 2020-2-29 10:44:02 | 显示全部楼层
非常感谢蓝光高清网分享的各种知识和资源,祝蓝光高清网越来越好
回复

使用道具 举报

Ben 发表于 2020-2-29 11:30:09 | 显示全部楼层
非常感谢蓝光高清网分享的各种知识和资源,祝蓝光高清网越来越好
回复

使用道具 举报

canikimo 发表于 2020-2-29 11:39:23 | 显示全部楼层
非常感谢蓝光高清网给大家的享乐4k,祝蓝光高清网越办越好!
回复

使用道具 举报

ben7586 发表于 2020-2-29 12:29:49 | 显示全部楼层
好资源,顶一个
回复

使用道具 举报

hizzq 发表于 2020-2-29 12:34:50 | 显示全部楼层
非常感谢蓝光高清网分享的各种知识和资源,祝蓝光高清网越来越好
回复

使用道具 举报

匿名  发表于 2020-2-29 12:42:18
感谢分享资源
回复

使用道具

21032103 发表于 2020-2-29 12:55:07 | 显示全部楼层
祝蓝光高清网越来越棒,希望大家都来蓝光高清网下载。
回复

使用道具 举报

網事如風 发表于 2020-2-29 13:10:13 | 显示全部楼层
非常感谢蓝光高清网给大家的享乐4k,祝蓝光高清网越办越好!
回复

使用道具 举报

yusong 发表于 2020-2-29 13:43:31 | 显示全部楼层
谢谢楼主分享
回复

使用道具 举报

您需要登录后才可以回帖 登录 | 立即注册

本版积分规则

关注0

粉丝1

帖子82508

发布主题
最新电影 论坛
本期活动
联系我们
点击这里联系客服

服务时间:
周一到周日8:00-23:30

  • 打开微信扫一扫
    关注公众号

  • 手机QQ扫一扫
    添加客服

手机版蓝光高清网 ( 渝ICP备18006373号-2 )|网站地图

Powered by Discuz! X3.4  © 2001-2013 Comsenz Inc.