[剧情片] 险中之人 For.Those.In.Peril.2013.1080p.AMZN.WEBRip.DDP5.1.x264-NTG 8.55GB

[复制链接]
蓝鸟 发表于 2020-3-2 10:55:09 | 显示全部楼层 |阅读模式 打印 上一主题 下一主题

险中之人 For.Those.In.Peril.2013.1080p.AMZN.WEBRip.DDP5.1.x264-NTG 8.55GB

险中之人 For.Those.In.Peril.2013.1080p.AMZN.WEBRip.DDP5.1.x264-NTG 8.55GB


译  名 险中之人
片  名 For Those in Peril
年  代 2013
产  地 英国
类  别 剧情 / 惊悚
语  言 英语
上映日期 2013-05-18(戛纳电影节)
IMDb评分  6.4/10 from 876 users
IMDb链接  https://www.imdb.com/title/tt2315628
豆瓣评分 0/10 from 0 users
豆瓣链接 https://movie.douban.com/subject/23780485/
片  长 93分钟
导  演 Paul Wright
编  剧 Paul Wright
主  演 乔治·麦凯 George MacKay
       凯特·迪基 Kate Dickie
       尼古拉·博利 Nichola Burley
       Michael Smiley
       布莱恩·麦克卡尔迭 Brian McCardie
       Conor McCarron


标  签 英国 | 2013 | 英国电影 | 纪录片 | mackay | 麦凯 | 独立电影 | 乔治

简  介  

  Aaron, a young misfit living in a remote Scottish fishing community, is the lone survivor of a strange fishing accident that claimed the lives of five men including his older brother. Spurred on by sea-going folklore and local superstition, the village blames Aaron for this tragedy, making him an outcast amongst his own people. Steadfastly refusing to believe that his brother has died, he sets out to recover him and the rest of men.

获奖情况  

  第66届戛纳电影节(2013)
  金摄影机奖(导演处女作奖)(提名) 保罗·怀特

  第16届英国独立电影奖(2013)
  最佳新人导演 保罗·怀特

  第34届伦敦影评人协会奖(2014)
  年度英国/爱尔兰小演员(提名) 乔治·麦凯
  年度突破英国/爱尔兰电影人(提名) 保罗·怀特


该资源信息参数
  1. Video
  2. ID                                       : 1
  3. Format                                   : AVC
  4. Format/Info                              : Advanced Video Codec
  5. Format profile                           : High@L4
  6. Format settings                          : CABAC / 4 Ref Frames
  7. Format settings, CABAC                   : Yes
  8. Format settings, Reference frames        : 4 frames
  9. Codec ID                                 : V_MPEG4/ISO/AVC
  10. Duration                                 : 1 h 32 min
  11. Bit rate                                 : 12.6 Mb/s
  12. Width                                    : 1 920 pixels
  13. Height                                   : 1 080 pixels
  14. Display aspect ratio                     : 16:9
  15. Frame rate mode                          : Constant
  16. Frame rate                               : 23.976 (24000/1001) FPS
  17. Color space                              : YUV
  18. Chroma subsampling                       : 4:2:0
  19. Bit depth                                : 8 bits
  20. Scan type                                : Progressive
  21. Bits/(Pixel*Frame)                       : 0.254
  22. Stream size                              : 8.14 GiB (95%)
  23. Default                                  : Yes
  24. Forced                                   : No
  25. Color range                              : Limited
  26. Color primaries                          : BT.709
  27. Transfer characteristics                 : BT.709
  28. Matrix coefficients                      : BT.709

  29. Audio
  30. ID                                       : 2
  31. Format                                   : E-AC-3
  32. Format/Info                              : Enhanced AC-3
  33. Commercial name                          : Dolby Digital Plus
  34. Codec ID                                 : A_EAC3
  35. Duration                                 : 1 h 32 min
  36. Bit rate mode                            : Constant
  37. Bit rate                                 : 640 kb/s
  38. Channel(s)                               : 6 channels
  39. Channel layout                           : L R C LFE Ls Rs
  40. Sampling rate                            : 48.0 kHz
  41. Frame rate                               : 31.250 FPS (1536 SPF)
  42. Compression mode                         : Lossy
  43. Stream size                              : 422 MiB (5%)
  44. Language                                 : English
  45. Service kind                             : Complete Main
  46. Default                                  : Yes
  47. Forced                                   : No

  48. Text #1
  49. ID                                       : 3
  50. Format                                   : UTF-8
  51. Codec ID                                 : S_TEXT/UTF8
  52. Codec ID/Info                            : UTF-8 Plain Text
  53. Duration                                 : 1 h 25 min
  54. Bit rate                                 : 36 b/s
  55. Count of elements                        : 789
  56. Stream size                              : 23.1 KiB (0%)
  57. Language                                 : English
  58. Default                                  : No
  59. Forced                                   : No

  60. Text #2
  61. ID                                       : 4
  62. Format                                   : UTF-8
  63. Codec ID                                 : S_TEXT/UTF8
  64. Codec ID/Info                            : UTF-8 Plain Text
  65. Duration                                 : 1 h 25 min
  66. Bit rate                                 : 37 b/s
  67. Count of elements                        : 790
  68. Stream size                              : 23.2 KiB (0%)
  69. Title                                    : SDH
  70. Language                                 : English
  71. Default                                  : No
  72. Forced                                   : No
复制代码


精彩剧照

险中之人 For.Those.In.Peril.2013.1080p.AMZN.WEBRip.DDP5.1.x264-NTG 8.55GB

险中之人 For.Those.In.Peril.2013.1080p.AMZN.WEBRip.DDP5.1.x264-NTG 8.55GB

险中之人 For.Those.In.Peril.2013.1080p.AMZN.WEBRip.DDP5.1.x264-NTG 8.55GB

险中之人 For.Those.In.Peril.2013.1080p.AMZN.WEBRip.DDP5.1.x264-NTG 8.55GB

险中之人 For.Those.In.Peril.2013.1080p.AMZN.WEBRip.DDP5.1.x264-NTG 8.55GB

险中之人 For.Those.In.Peril.2013.1080p.AMZN.WEBRip.DDP5.1.x264-NTG 8.55GB



蓝光高清网提示您 点击下方附件名称 马上开始下载

险中之人 For.Those.In.Peril.2013.1080p.AMZN.WEBRip.DDP5.1.x264-NTG 8.55GB
For.Those.In.Peril.2013.1080p.AMZN.WEBRip.DDP5.1.x264-NTG.torrent 
         (43.31 KB    阅读权限: 0)
加入蓝光高清网VIP会员  无限制下载本站所有资源---点这里

资源下载、资源播放、字幕使用、无法下载等常见问题---点这里
回复

使用道具 举报

精彩评论1

funthink 发表于 2020-3-2 11:03:48 | 显示全部楼层
祝蓝光高清网越来越棒,希望大家都来蓝光高清网下载。
回复

使用道具 举报

您需要登录后才可以回帖 登录 | 立即注册

本版积分规则

关注0

粉丝1

帖子82483

发布主题
最新电影 论坛
本期活动
联系我们
点击这里联系客服

服务时间:
周一到周日8:00-23:30

  • 打开微信扫一扫
    关注公众号

  • 手机QQ扫一扫
    添加客服

手机版蓝光高清网 ( 渝ICP备18006373号-2 )|网站地图

Powered by Discuz! X3.4  © 2001-2013 Comsenz Inc.