[动作片] 勇敢风暴 BraveStorm.2017.720p.BluRay.x264-REGRET 3.28GB

[复制链接]
蓝鸟 发表于 2020-3-2 11:02:56 | 显示全部楼层 |阅读模式 打印 上一主题 下一主题

勇敢风暴 BraveStorm.2017.720p.BluRay.x264-REGRET 3.28GB

勇敢风暴 BraveStorm.2017.720p.BluRay.x264-REGRET 3.28GB


译  名 勇敢风暴 / ブレイブストーム
片  名 BRAVE STORM ブレイブストーム
年  代 2017
产  地 日本
类  别 动作 / 科幻
语  言 日语
上映日期 2017-11-10(日本)
IMDb评分  5.3/10 from 121 users
IMDb链接  https://www.imdb.com/title/tt6403382
豆瓣评分 4.8/10 from 147 users
豆瓣链接 https://movie.douban.com/subject/27080343/
片  长 81分钟
导  演 岡部淳也
编  剧 岡部淳也
主  演 大东骏介 Shunsuke Daito
       渡部秀 Shu Watanabe
       山本千寻 Chihiro Yamamoto
       坛蜜 Mitsu Dan
       藤田富 Momoe Fujisaki


标  签 科幻 | 日本 | 2017 | 动作 | 日本电影 | 特摄 | 灾难 | 电影

简  介  

  1970年代的特攝英雄節目《銀假面》及《超級機器人 紅巴隆》TV放送後經過40年以上,2017年今年秋季真人電影化《BRAVE STORM ブレイブストーム》上映決定!
  本作是2作品於同一銀幕上共演的SF動作電影。主演是《熱血高校(Crows Zero)》系列的大東駿介及《假面騎士OOO》的渡部秀2人,製作由圓谷製作的元代表取締役副社長?岡部淳也創立的株式会社BLAST負責及監督。
  電影舞台是人類即將滅亡的2050年的東京。極少數作為剩餘的人類生存著的春日5人兄弟(大東、山本千尋(捷德女主角)、タモト清嵐(巨蟹座Zodiarts、壇蜜、春日光一),回到キルギス星人開始侵略地球前的過去,實行抹殺キルギス星人的計劃。將奪取的巨大機器人設計數據、宇宙人探測玻璃瓶、通靈能力、強化戰鬥服“Silver”得到手,並前往2015年。然後,他們與機器人工學者?紅健一郎(吉沢悠)接觸,委託製作巨大機器人“紅巴隆”。而且健一郎的弟弟,血氣方剛的拳擊手?紅健(渡部),作為紅巴隆的操縱者,捲入掌握地球存亡關鍵的壯絕戰鬥之中。電影還會有泉谷しげる(牙狼D蘋果)、寺脇康文、藤田富(Amazon Omega)也出演。


该资源信息参数
  1. Video
  2. ID                                       : 1
  3. Format                                   : AVC
  4. Format/Info                              : Advanced Video Codec
  5. Format profile                           : High@L4
  6. Format settings                          : CABAC / 5 Ref Frames
  7. Format settings, CABAC                   : Yes
  8. Format settings, Reference frames        : 5 frames
  9. Codec ID                                 : V_MPEG4/ISO/AVC
  10. Duration                                 : 1 h 21 min
  11. Bit rate                                 : 5 119 kb/s
  12. Width                                    : 1 280 pixels
  13. Height                                   : 720 pixels
  14. Display aspect ratio                     : 16:9
  15. Frame rate mode                          : Constant
  16. Frame rate                               : 23.976 (24000/1001) FPS
  17. Color space                              : YUV
  18. Chroma subsampling                       : 4:2:0
  19. Bit depth                                : 8 bits
  20. Scan type                                : Progressive
  21. Bits/(Pixel*Frame)                       : 0.232
  22. Stream size                              : 2.91 GiB (89%)
  23. Writing library                          : x264 core 159 r2991 1771b55
  24. Encoding settings                        : cabac=1 / ref=5 / deblock=1:-3:-3 / analyse=0x3:0x133 / me=umh / subme=9 / psy=1 / psy_rd=1.00:0.00 / mixed_ref=1 / me_range=16 / chroma_me=1 / trellis=2 / 8x8dct=1 / cqm=0 / deadzone=21,11 / fast_pskip=0 / chroma_qp_offset=-2 / threads=22 / lookahead_threads=1 / sliced_threads=0 / nr=0 / decimate=1 / interlaced=0 / bluray_compat=0 / constrained_intra=0 / bframes=3 / b_pyramid=2 / b_adapt=1 / b_bias=0 / direct=3 / weightb=1 / open_gop=0 / weightp=2 / keyint=240 / keyint_min=24 / scenecut=40 / intra_refresh=0 / rc_lookahead=50 / rc=2pass / mbtree=1 / bitrate=5119 / ratetol=1.0 / qcomp=0.60 / qpmin=0 / qpmax=69 / qpstep=4 / cplxblur=20.0 / qblur=0.5 / ip_ratio=1.40 / aq=1:1.00
  25. Language                                 : English
  26. Default                                  : Yes
  27. Forced                                   : No

  28. Audio
  29. ID                                       : 2
  30. Format                                   : AC-3
  31. Format/Info                              : Audio Coding 3
  32. Commercial name                          : Dolby Digital
  33. Codec ID                                 : A_AC3
  34. Duration                                 : 1 h 21 min
  35. Bit rate mode                            : Constant
  36. Bit rate                                 : 640 kb/s
  37. Channel(s)                               : 6 channels
  38. Channel layout                           : L R C LFE Ls Rs
  39. Sampling rate                            : 48.0 kHz
  40. Frame rate                               : 31.250 FPS (1536 SPF)
  41. Bit depth                                : 16 bits
  42. Compression mode                         : Lossy
  43. Stream size                              : 373 MiB (11%)
  44. Language                                 : Japanese
  45. Service kind                             : Complete Main
  46. Default                                  : Yes
  47. Forced                                   : No

  48. Text
  49. ID                                       : 3
  50. Format                                   : UTF-8
  51. Codec ID                                 : S_TEXT/UTF8
  52. Codec ID/Info                            : UTF-8 Plain Text
  53. Duration                                 : 1 h 16 min
  54. Bit rate                                 : 29 b/s
  55. Count of elements                        : 525
  56. Stream size                              : 16.8 KiB (0%)
  57. Title                                    : English Forced
  58. Language                                 : English
  59. Default                                  : Yes
  60. Forced                                   : Yes

  61. Menu
  62. 00:00:00.000                             : en:Chapter 01
  63. 00:12:14.192                             : en:Chapter 02
  64. 00:24:21.460                             : en:Chapter 03
  65. 00:41:48.506                             : en:Chapter 04
  66. 00:56:07.030                             : en:Chapter 05
  67. 01:05:16.204                             : en:Chapter 06
复制代码


精彩剧照

勇敢风暴 BraveStorm.2017.720p.BluRay.x264-REGRET 3.28GB

勇敢风暴 BraveStorm.2017.720p.BluRay.x264-REGRET 3.28GB







蓝光高清网提示您 点击下方附件名称 马上开始下载

勇敢风暴 BraveStorm.2017.720p.BluRay.x264-REGRET 3.28GB
BraveStorm.2017.720p.BluRay.x264-REGRET.torrent 
         (33.41 KB    阅读权限: 0)
加入蓝光高清网VIP会员  无限制下载本站所有资源---点这里

资源下载、资源播放、字幕使用、无法下载等常见问题---点这里
回复

使用道具 举报

精彩评论1

wyf198500 发表于 2020-3-2 11:03:48 | 显示全部楼层
近期肺炎闹得挺厉害,大家伙还是多访问访问蓝光高清网,为国家做贡献。访问蓝光高清网,就是为国出力
回复

使用道具 举报

您需要登录后才可以回帖 登录 | 立即注册

本版积分规则

关注0

粉丝1

帖子82508

发布主题
最新电影 论坛
本期活动
联系我们
点击这里联系客服

服务时间:
周一到周日8:00-23:30

  • 打开微信扫一扫
    关注公众号

  • 手机QQ扫一扫
    添加客服

手机版蓝光高清网 ( 渝ICP备18006373号-2 )|网站地图

Powered by Discuz! X3.4  © 2001-2013 Comsenz Inc.