[剧情片] 视死如归/缅甸浴血战 Merrills.Marauders.1962.720p.BluRay.x264-SPECTACLE 5.47GB

[复制链接]
蓝鸟 发表于 2020-3-2 11:04:03 | 显示全部楼层 |阅读模式 打印 上一主题 下一主题

视死如归/缅甸浴血战 Merrills.Marauders.1962.720p.BluRay.x264-SPECTACLE 5.47GB

视死如归/缅甸浴血战 Merrills.Marauders.1962.720p.BluRay.x264-SPECTACLE 5.47GB


译  名 视死如归 / 缅甸浴血战
片  名 Merrill"s Marauders
年  代 1962
产  地 美国
类  别 剧情 / 战争 / 冒险
语  言 英语
上映日期 1962-03-16
IMDb评分  6.6/10 from 1920 users
IMDb链接  https://www.imdb.com/title/tt0056234
豆瓣评分 0/10 from 0 users
豆瓣链接 https://movie.douban.com/subject/1299899/
片  长 98 分钟
导  演 Samuel Fuller
编  剧 Milton Sperling / Samuel Fuller
主  演 Jeff Chandler
       Ty Hardin
       eter Brown


标  签 战争 | 美国 | 二战 | 塞缪尔·富勒 | Samuel_Fuller | 1962 | 美国电影 | 1960s

简  介  

  杰夫·钱德勒在这部一九六二年的战争片中饰演二次大战的将军法兰克梅洛尔,英勇率领麾下三千名自愿兵在缅甸的丛林中迅速杀出日本军队的重围。


该资源信息参数
  1. Video
  2. ID                                       : 1
  3. Format                                   : AVC
  4. Format/Info                              : Advanced Video Codec
  5. Format profile                           : High@L4
  6. Format settings                          : CABAC / 12 Ref Frames
  7. Format settings, CABAC                   : Yes
  8. Format settings, Reference frames        : 12 frames
  9. Codec ID                                 : V_MPEG4/ISO/AVC
  10. Duration                                 : 1 h 38 min
  11. Bit rate                                 : 6 467 kb/s
  12. Width                                    : 1 280 pixels
  13. Height                                   : 544 pixels
  14. Display aspect ratio                     : 2.35:1
  15. Frame rate mode                          : Constant
  16. Frame rate                               : 23.976 (24000/1001) FPS
  17. Color space                              : YUV
  18. Chroma subsampling                       : 4:2:0
  19. Bit depth                                : 8 bits
  20. Scan type                                : Progressive
  21. Bits/(Pixel*Frame)                       : 0.387
  22. Stream size                              : 4.43 GiB (81%)
  23. Writing library                          : x264 core 159 r2991 1771b55
  24. Encoding settings                        : cabac=1 / ref=12 / deblock=1:-3:-3 / analyse=0x3:0x133 / me=umh / subme=10 / psy=1 / psy_rd=1.00:0.00 / mixed_ref=1 / me_range=32 / chroma_me=1 / trellis=2 / 8x8dct=1 / cqm=0 / deadzone=21,11 / fast_pskip=0 / chroma_qp_offset=-2 / threads=17 / lookahead_threads=2 / sliced_threads=0 / nr=0 / decimate=1 / interlaced=0 / bluray_compat=0 / constrained_intra=0 / bframes=8 / b_pyramid=2 / b_adapt=2 / b_bias=0 / direct=3 / weightb=1 / open_gop=0 / weightp=2 / keyint=240 / keyint_min=23 / scenecut=40 / intra_refresh=0 / rc_lookahead=60 / rc=2pass / mbtree=0 / bitrate=6467 / ratetol=1.0 / qcomp=0.60 / qpmin=0 / qpmax=69 / qpstep=4 / cplxblur=20.0 / qblur=0.5 / vbv_maxrate=62500 / vbv_bufsize=78125 / nal_hrd=none / filler=0 / ip_ratio=1.40 / pb_ratio=1.30 / aq=3:0.70
  25. Default                                  : Yes
  26. Forced                                   : No

  27. Audio
  28. ID                                       : 2
  29. Format                                   : DTS
  30. Format/Info                              : Digital Theater Systems
  31. Codec ID                                 : A_DTS
  32. Duration                                 : 1 h 38 min
  33. Bit rate mode                            : Constant
  34. Bit rate                                 : 1 509 kb/s
  35. Channel(s)                               : 2 channels
  36. Channel layout                           : L R
  37. Sampling rate                            : 48.0 kHz
  38. Frame rate                               : 93.750 FPS (512 SPF)
  39. Bit depth                                : 24 bits
  40. Compression mode                         : Lossy
  41. Stream size                              : 1.03 GiB (19%)
  42. Language                                 : English
  43. Default                                  : Yes
  44. Forced                                   : No

  45. Text #1
  46. ID                                       : 3
  47. Format                                   : UTF-8
  48. Codec ID                                 : S_TEXT/UTF8
  49. Codec ID/Info                            : UTF-8 Plain Text
  50. Duration                                 : 1 h 35 min
  51. Bit rate                                 : 42 b/s
  52. Count of elements                        : 1082
  53. Stream size                              : 29.8 KiB (0%)
  54. Language                                 : English
  55. Default                                  : No
  56. Forced                                   : No

  57. Text #2
  58. ID                                       : 4
  59. Format                                   : UTF-8
  60. Codec ID                                 : S_TEXT/UTF8
  61. Codec ID/Info                            : UTF-8 Plain Text
  62. Duration                                 : 1 h 35 min
  63. Bit rate                                 : 43 b/s
  64. Count of elements                        : 1104
  65. Stream size                              : 30.2 KiB (0%)
  66. Title                                    : SDH
  67. Language                                 : English
  68. Default                                  : No
  69. Forced                                   : No

  70. Menu
  71. 00:00:00.000                             : :Chapter 01
  72. 00:01:23.875                             : :Chapter 02
  73. 00:04:33.440                             : :Chapter 03
  74. 00:07:33.411                             : :Chapter 04
  75. 00:10:38.263                             : :Chapter 05
  76. 00:12:36.631                             : :Chapter 06
  77. 00:16:07.633                             : :Chapter 07
  78. 00:19:07.063                             : :Chapter 08
  79. 00:23:48.761                             : :Chapter 09
  80. 00:26:08.192                             : :Chapter 10
  81. 00:29:17.798                             : :Chapter 11
  82. 00:33:53.615                             : :Chapter 12
  83. 00:37:25.535                             : :Chapter 13
  84. 00:42:27.962                             : :Chapter 14
  85. 00:46:26.492                             : :Chapter 15
  86. 00:50:23.479                             : :Chapter 16
  87. 00:55:48.345                             : :Chapter 17
  88. 00:57:47.714                             : :Chapter 18
  89. 01:00:59.614                             : :Chapter 19
  90. 01:04:01.713                             : :Chapter 20
  91. 01:08:45.621                             : :Chapter 21
  92. 01:13:27.194                             : :Chapter 22
  93. 01:19:29.223                             : :Chapter 23
  94. 01:21:44.566                             : :Chapter 24
  95. 01:24:16.468                             : :Chapter 25
  96. 01:29:54.139                             : :Chapter 26
  97. 01:34:46.222                             : :Chapter 27
  98. 01:37:55.078                             : :Chapter 28
复制代码


精彩剧照

视死如归/缅甸浴血战 Merrills.Marauders.1962.720p.BluRay.x264-SPECTACLE 5.47GB

视死如归/缅甸浴血战 Merrills.Marauders.1962.720p.BluRay.x264-SPECTACLE 5.47GB







蓝光高清网提示您 点击下方附件名称 马上开始下载

视死如归/缅甸浴血战 Merrills.Marauders.1962.720p.BluRay.x264-SPECTACLE 5.47GB
Merrills.Marauders.1962.720p.BluRay.x264-SPECTACLE.torrent 
         (27.99 KB    阅读权限: 0)
加入蓝光高清网VIP会员  无限制下载本站所有资源---点这里

资源下载、资源播放、字幕使用、无法下载等常见问题---点这里
回复

使用道具 举报

精彩评论3

hybrid_halogen 发表于 2020-3-2 11:08:49 | 显示全部楼层
祝蓝光高清网越办越红火。
回复

使用道具 举报

slda 发表于 2020-3-2 11:25:47 | 显示全部楼层
祝大家身体健康,团结一致,抗击疫情
回复

使用道具 举报

快樂的小色狼 发表于 2020-3-2 11:25:47 | 显示全部楼层
祝蓝光高清网越来越棒,希望大家都来蓝光高清网下载。
回复

使用道具 举报

您需要登录后才可以回帖 登录 | 立即注册

本版积分规则

关注0

粉丝1

帖子82503

发布主题
最新电影 论坛
本期活动
联系我们
点击这里联系客服

服务时间:
周一到周日8:00-23:30

  • 打开微信扫一扫
    关注公众号

  • 手机QQ扫一扫
    添加客服

手机版蓝光高清网 ( 渝ICP备18006373号-2 )|网站地图

Powered by Discuz! X3.4  © 2001-2013 Comsenz Inc.