[喜剧片] 巴纳寇·比尔 Barnacle.Bill.1957.720p.BluRay.x264-SADPANDA 3.27GB

[复制链接]
蓝鸟 发表于 2020-3-2 11:08:05 | 显示全部楼层 |阅读模式 打印 上一主题 下一主题

巴纳寇·比尔 Barnacle.Bill.1957.720p.BluRay.x264-SADPANDA 3.27GB

巴纳寇·比尔 Barnacle.Bill.1957.720p.BluRay.x264-SADPANDA 3.27GB


译  名 巴纳寇·比尔 / All at Sea
片  名 Barnacle Bill
年  代 1957
产  地 英国
类  别 喜剧
语  言 英语
上映日期 1957-12-12(英国)
IMDb评分  6.9/10 from 832 users
IMDb链接  https://www.imdb.com/title/tt0050168
豆瓣评分 0/10 from 0 users
豆瓣链接 https://movie.douban.com/subject/4904001/
片  长 87 分钟
导  演 查尔斯·弗伦德 Charles Frend
编  剧 T·E·B·克拉克 T.E.B. Clarke
主  演 Alec Guinness
       Irene Browne
       Lionel Jeffries


标  签 英国 | 英国电影 | 1957 | 老电影 | 喜剧 | Ealing_Comedies | Alec_Guinness | §

简  介  

  Captain Ambrose comes from a long line of distinguished sailors...but is all too susceptible to seasickness. After the war, he buys himself a nautical command on shore; a decrepit amusement pier at the British resort town Sandcastle-on-Sea, whose prim town council has outlawed arcade games as a form of gambling! Running the pier like a naval vessel, the captain"s determination to make it a modern, going concern meets steady opposition. But with an unexpected new ally, he pursues a remarkable scheme to liberate his "ship" from land authorities...


该资源信息参数
  1. Video
  2. ID                                       : 1
  3. Format                                   : AVC
  4. Format/Info                              : Advanced Video Codec
  5. Format profile                           : High@L4
  6. Format settings                          : CABAC / 5 Ref Frames
  7. Format settings, CABAC                   : Yes
  8. Format settings, Reference frames        : 5 frames
  9. Codec ID                                 : V_MPEG4/ISO/AVC
  10. Duration                                 : 1 h 27 min
  11. Bit rate                                 : 5 008 kb/s
  12. Width                                    : 1 200 pixels
  13. Height                                   : 720 pixels
  14. Display aspect ratio                     : 5:3
  15. Frame rate mode                          : Constant
  16. Frame rate                               : 23.976 (24000/1001) FPS
  17. Color space                              : YUV
  18. Chroma subsampling                       : 4:2:0
  19. Bit depth                                : 8 bits
  20. Scan type                                : Progressive
  21. Bits/(Pixel*Frame)                       : 0.242
  22. Stream size                              : 3.07 GiB (94%)
  23. Writing library                          : x264 core 159 r2991 1771b55
  24. Encoding settings                        : cabac=1 / ref=5 / deblock=1:-3:-3 / analyse=0x3:0x113 / me=umh / subme=8 / psy=1 / psy_rd=1.00:0.25 / mixed_ref=1 / me_range=24 / chroma_me=1 / trellis=1 / 8x8dct=1 / cqm=0 / deadzone=21,11 / fast_pskip=1 / chroma_qp_offset=-4 / threads=22 / lookahead_threads=3 / sliced_threads=0 / nr=0 / decimate=1 / interlaced=0 / bluray_compat=0 / constrained_intra=0 / bframes=3 / b_pyramid=2 / b_adapt=1 / b_bias=0 / direct=3 / weightb=1 / open_gop=0 / weightp=2 / keyint=240 / keyint_min=24 / scenecut=40 / intra_refresh=0 / rc_lookahead=50 / rc=2pass / mbtree=1 / bitrate=5008 / ratetol=1.0 / qcomp=0.60 / qpmin=0 / qpmax=69 / qpstep=4 / cplxblur=20.0 / qblur=0.5 / ip_ratio=1.40 / aq=1:0.75
  25. Default                                  : Yes
  26. Forced                                   : No

  27. Audio
  28. ID                                       : 2
  29. Format                                   : FLAC
  30. Format/Info                              : Free Lossless Audio Codec
  31. Codec ID                                 : A_FLAC
  32. Duration                                 : 1 h 27 min
  33. Bit rate mode                            : Variable
  34. Bit rate                                 : 329 kb/s
  35. Channel(s)                               : 2 channels
  36. Channel layout                           : L R
  37. Sampling rate                            : 48.0 kHz
  38. Frame rate                               : 11.719 FPS (4096 SPF)
  39. Bit depth                                : 16 bits
  40. Compression mode                         : Lossless
  41. Stream size                              : 207 MiB (6%)
  42. Writing library                          : libFLAC 1.2.1 (UTC 2007-09-17)
  43. Language                                 : English
  44. Default                                  : Yes
  45. Forced                                   : No

  46. Menu
  47. 00:00:00.000                             : en:Chapter 01
  48. 00:09:32.822                             : en:Chapter 02
  49. 00:16:26.152                             : en:Chapter 03
  50. 00:28:27.664                             : en:Chapter 04
  51. 00:42:18.870                             : en:Chapter 05
  52. 00:51:34.008                             : en:Chapter 06
  53. 01:04:52.305                             : en:Chapter 07
  54. 01:15:18.973                             : en:Chapter 08
复制代码


精彩剧照

巴纳寇·比尔 Barnacle.Bill.1957.720p.BluRay.x264-SADPANDA 3.27GB

巴纳寇·比尔 Barnacle.Bill.1957.720p.BluRay.x264-SADPANDA 3.27GB







蓝光高清网提示您 点击下方附件名称 马上开始下载

巴纳寇·比尔 Barnacle.Bill.1957.720p.BluRay.x264-SADPANDA 3.27GB
Barnacle.Bill.1957.720p.BluRay.x264-SADPANDA.torrent 
         (33.34 KB    阅读权限: 0)
加入蓝光高清网VIP会员  无限制下载本站所有资源---点这里

资源下载、资源播放、字幕使用、无法下载等常见问题---点这里
回复

使用道具 举报

您需要登录后才可以回帖 登录 | 立即注册

本版积分规则

关注0

粉丝1

帖子82496

发布主题
最新电影 论坛
本期活动
联系我们
点击这里联系客服

服务时间:
周一到周日8:00-23:30

  • 打开微信扫一扫
    关注公众号

  • 手机QQ扫一扫
    添加客服

手机版蓝光高清网 ( 渝ICP备18006373号-2 )|网站地图

Powered by Discuz! X3.4  © 2001-2013 Comsenz Inc.