[动画片] 动物特工局 Spycies.2019.LIMITED.720p.BluRay.x264-ALLiANCE 3.28GB

[复制链接]
蓝鸟 发表于 2020-3-2 11:09:55 | 显示全部楼层 |阅读模式 打印 上一主题 下一主题

动物特工局 Spycies.2019.LIMITED.720p.BluRay.x264-ALLiANCE 3.28GB

动物特工局 Spycies.2019.LIMITED.720p.BluRay.x264-ALLiANCE 3.28GB


译  名 Spycies
片  名 动物特工局
年  代 2019
产  地 中国大陆 / 法国
类  别 喜剧 / 动画 / 冒险
语  言 英语 / 汉语普通话
上映日期 2019-06-17(上海电影节) / 2020-01-11(中国大陆)
IMDb评分  5.0/10 from 142 users
IMDb链接  https://www.imdb.com/title/tt8028842
豆瓣评分 6.3/10 from 3340 users
豆瓣链接 https://movie.douban.com/subject/30217371/
片  长 99分钟
导  演 张志一 Zhiyi Zhang / 纪约姆·伊弗奈 Guillaume Ivernel
编  剧 张志一 Zhiyi Zhang / 米歇尔 / 斯坦芬
主  演 姜广涛 Guangtao Jiang
       马正阳 Zhengyang Ma
       韩啸 Xiao Han
       吟良犬
       慧明
       汤水雨 Shuiyu Tang


标  签 动画 | 动物 | 中国大陆 | 新锐 | 鬼灵精怪 | 法国 | 喜剧 | 2019

简  介  

  谁说猫鼠不能做朋友?谁说损友不能一起拯救世界?在一个多种动物组成的现代化世界里,动物特工局精英张大威(猫)在因缘际会下结识废柴技术宅阿丘(鼠),当傲娇成性、嘴硬心软的张大威遇见幽默呆萌、重情重义的阿丘,会发生什么欢乐逗趣的故事?这对被卷入一场惊天阴谋的猫鼠搭档,在破案的途中联合其他伙伴各显神通,斗智斗勇。随着一个名叫“寒冰魔鬼”的幕后黑手的出现,令人不寒而栗的真相渐渐浮出水面……

获奖情况  

  第22届上海国际电影节(2019)
  金爵奖 最佳动画片(提名) 纪约姆·伊弗奈 / 张志一


该资源信息参数
  1. Video
  2. ID                                       : 1
  3. Format                                   : AVC
  4. Format/Info                              : Advanced Video Codec
  5. Format profile                           : High@L4
  6. Format settings                          : CABAC / 5 Ref Frames
  7. Format settings, CABAC                   : Yes
  8. Format settings, Reference frames        : 5 frames
  9. Codec ID                                 : V_MPEG4/ISO/AVC
  10. Duration                                 : 1 h 39 min
  11. Bit rate                                 : 3 557 kb/s
  12. Width                                    : 1 280 pixels
  13. Height                                   : 544 pixels
  14. Display aspect ratio                     : 2.35:1
  15. Frame rate mode                          : Constant
  16. Frame rate                               : 24.000 FPS
  17. Color space                              : YUV
  18. Chroma subsampling                       : 4:2:0
  19. Bit depth                                : 8 bits
  20. Scan type                                : Progressive
  21. Bits/(Pixel*Frame)                       : 0.213
  22. Stream size                              : 2.47 GiB (75%)
  23. Writing library                          : x264 core 159 r2991 1771b55
  24. Encoding settings                        : cabac=1 / ref=5 / deblock=1:-3:-3 / analyse=0x3:0x113 / me=umh / subme=8 / psy=1 / psy_rd=1.00:0.00 / mixed_ref=1 / me_range=16 / chroma_me=1 / trellis=1 / 8x8dct=1 / cqm=0 / deadzone=21,11 / fast_pskip=1 / chroma_qp_offset=-2 / threads=17 / lookahead_threads=2 / sliced_threads=0 / nr=0 / decimate=1 / interlaced=0 / bluray_compat=0 / constrained_intra=0 / bframes=3 / b_pyramid=2 / b_adapt=1 / b_bias=0 / direct=3 / weightb=1 / open_gop=0 / weightp=2 / keyint=250 / keyint_min=24 / scenecut=40 / intra_refresh=0 / rc_lookahead=50 / rc=2pass / mbtree=1 / bitrate=3557 / ratetol=1.0 / qcomp=0.60 / qpmin=0 / qpmax=69 / qpstep=4 / cplxblur=20.0 / qblur=0.5 / ip_ratio=1.40 / aq=1:1.00
  25. Language                                 : English
  26. Default                                  : Yes
  27. Forced                                   : No

  28. Audio
  29. ID                                       : 2
  30. Format                                   : DTS
  31. Format/Info                              : Digital Theater Systems
  32. Codec ID                                 : A_DTS
  33. Duration                                 : 1 h 39 min
  34. Bit rate mode                            : Constant
  35. Bit rate                                 : 1 152 kb/s
  36. Channel(s)                               : 6 channels
  37. Channel layout                           : C L R Ls Rs LFE
  38. Sampling rate                            : 48.0 kHz
  39. Frame rate                               : 93.750 FPS (512 SPF)
  40. Bit depth                                : 24 bits
  41. Compression mode                         : Lossy
  42. Stream size                              : 820 MiB (24%)
  43. Language                                 : English
  44. Default                                  : Yes
  45. Forced                                   : No
复制代码


精彩剧照

动物特工局 Spycies.2019.LIMITED.720p.BluRay.x264-ALLiANCE 3.28GB

动物特工局 Spycies.2019.LIMITED.720p.BluRay.x264-ALLiANCE 3.28GB







蓝光高清网提示您 点击下方附件名称 马上开始下载

动物特工局 Spycies.2019.LIMITED.720p.BluRay.x264-ALLiANCE 3.28GB
Spycies.2019.LIMITED.720p.BluRay.x264-ALLiANCE.torrent 
         (33.48 KB    阅读权限: 0)
加入蓝光高清网VIP会员  无限制下载本站所有资源---点这里

资源下载、资源播放、字幕使用、无法下载等常见问题---点这里
回复

使用道具 举报

精彩评论3

heming886 发表于 2020-3-2 11:25:47 | 显示全部楼层
身体健康,天天开心,祝蓝光高清网越办越红火
回复

使用道具 举报

zhenghui1126 发表于 2020-3-2 11:25:47 | 显示全部楼层
好网站,希望越来越好
回复

使用道具 举报

我为卿狂 发表于 2020-3-8 18:09:09 | 显示全部楼层

支持蓝光高清网!
回复

使用道具 举报

您需要登录后才可以回帖 登录 | 立即注册

本版积分规则

关注0

粉丝1

帖子82494

发布主题
最新电影 论坛
本期活动
联系我们
点击这里联系客服

服务时间:
周一到周日8:00-23:30

  • 打开微信扫一扫
    关注公众号

  • 手机QQ扫一扫
    添加客服

手机版蓝光高清网 ( 渝ICP备18006373号-2 )|网站地图

Powered by Discuz! X3.4  © 2001-2013 Comsenz Inc.