精灵旅社
sbs 
7.9
  • 年代: 2012年
  • 国家/地区: 美国
  • 类型: 喜剧 动画 奇幻 
  • 导演: 格恩迪·塔塔科夫斯基
  • 音轨: DTS-HD.MA 5.1 
  • 时长: 91分钟
  • 主演:亚当·桑德勒 / 安迪·萨姆伯格 / 赛琳娜·戈麦斯 / 凯文·詹姆斯 / 法兰·德瑞雪
特别声明:本站提供的所有高清电影作品均是在网上搜集,任何涉及商业盈利目的均不得使用,否则产生的一切后果将由您自己承担!本站将不对本站的任何内容负任何法律责任!该下载内容仅做宽带测试使用,请在下载后24小时内删除。请购买正版! 本站所有资源均由网上收集而来,版权归原影音公司所有,如果侵犯了你的权益,请通知我们,我们会及时删除侵权内容.

精灵旅社/尖叫旅社 Hotel.Transylvania.2012.3D.1080p.BluRay.x264-REGRET 4.45GB

[复制链接]
蓝鸟 发表于 2020-3-8 12:05:30 | 显示全部楼层 |阅读模式 打印 上一主题 下一主题

) w) \" K7 o( ?. x
* v0 Z- F& ^$ P' }

& ]6 j" ^% |' X  H  W/ E简  介  
$ q8 u; Q! T0 \" O! x
# C4 h4 M# h. k3 j8 ?  R; B' n

! I+ M8 T9 o' M/ \, v  在阴森恐怖令人谈之色变的幽灵森林深处,耸立着一幢巍峨庄严的古堡。这里的主人正是声名显赫的吸血鬼德古拉(亚当·桑德勒 Adam Sandler 配音)。与传说中不同,德古拉是一个无比温柔的好爸爸,他独自抚养爱女梅菲丝(赛琳娜·戈麦斯 Selena Gomez 配音),为了保护女儿免遭人类的戕害,而特意修建了这座名为尖叫旅社的城堡,普通人类绝对无法接近这里。每年梅菲丝生日之际,科学怪人、狼人、木乃伊、隐形人等怪物都从世界各地赶来为小女孩庆生。在梅菲丝118岁生日之际,她渴望见识外面的世界,早有准备的德古拉设下骗局,却意外将人类少年乔纳森(安迪·萨姆伯格 Andy Samberg 配音)引入古堡。5 h+ j0 s4 \+ X$ X6 |
  乔纳森的到来似乎为怪物世界带来一股全新的气息,德古拉伯爵则不得不费尽心机隐藏他是人类的真相……
+ ]5 n* _# R1 H% z% G4 m+ K- l" j* _' x6 E& w( A
7 h! G# S4 i& m0 z$ s9 Q7 y. o
获奖情况  ( F- S9 Y: g+ k* Y/ y; C6 ~7 M5 F
& v% d, y  Q' B% Q6 v9 ?. L) X
" u9 x6 C9 U. K; }: f; q9 L
  第70届金球奖(2013)
% |1 ?  E& O0 ~$ O3 }7 H# [' }* V  电影类 最佳动画长片(提名)' |  o+ `5 E  J% {8 v
3 s5 _' E8 ^+ L% |* G& Z6 Q
$ y) b/ u: E1 D, ^5 ]
  第40届动画安妮奖(2013)
6 @; K0 u# z) q' y% U" d  最佳动画长片(提名), {: U& l, D3 g! p
  最佳导演(提名) 格恩迪·塔塔科夫斯基: X7 k/ M! y7 ^1 H5 E7 e
  最佳配音(提名) 亚当·桑德勒9 |2 o7 m! J3 U/ d* }% Z
  最佳配乐(提名) 马克·马瑟斯鲍夫
3 ^2 E% [0 n  U; D) _4 ?8 q  最佳剪辑(提名)
% }+ b5 t7 k0 x( o$ g8 |4 r  最佳艺术指导(提名) Marcelo Vignali
+ d5 ^3 X% {" d8 g0 W  最佳角色设计(提名) 卡洛斯·格兰奇尔 / Carter Goodrich+ X: R+ E& x& l: o' `- g2 P& p' o
+ s& _/ J- n/ m- x" k7 Q
2 L1 _% f) J# b+ O2 Q
影片参数# U  @" k; M- j9 {
Video% K# B& A8 V1 N( ^5 A4 M( I
ID                                       : 1
. O0 x2 }- U, B( Q9 a8 a& w) xFormat                                   : AVC, m4 O1 s, a2 L% t
Format/Info                              : Advanced Video Codec1 d2 m9 W2 X. @9 a( h5 m
Format profile                           : High@L4% J( R8 y' k' X6 K+ ?. d
Format settings                          : CABAC / 4 Ref Frames. b* N6 a9 K4 j9 `$ `. V1 \& T
Format settings, CABAC                   : Yes
/ e2 n7 M3 H2 S% HFormat settings, Reference frames        : 4 frames  f' A" r2 D6 F; O) ^
Codec ID                                 : V_MPEG4/ISO/AVC
" e/ \% Z7 c  a+ F0 Z8 t9 a! ~Duration                                 : 1 h 31 min
9 \) f% y2 d/ I9 }, sBit rate                                 : 5 326 kb/s
& Q9 t4 F2 p+ [, LWidth                                    : 1 920 pixels
: L* A: X" T! E3 zHeight                                   : 1 040 pixels5 F, r8 d" _/ q# O% e2 B8 x
Display aspect ratio                     : 1.85:1
0 [; m( ]1 A; f4 F8 s- [1 u$ PFrame rate mode                          : Constant
* f1 Z- E6 Y6 Q/ |* VFrame rate                               : 23.976 (24000/1001) FPS6 ^7 e3 d  W8 N' o3 E- N. ~
Color space                              : YUV0 X- Q0 i$ b4 m( P2 b/ p- g' E
Chroma subsampling                       : 4:2:0
* P8 S+ z2 L9 z! J' M; \; G0 sBit depth                                : 8 bits
; S5 v* R: W( t% U$ `Scan type                                : Progressive
1 r) ?: M7 K4 b8 j0 a0 R! P9 m3 T& MBits/(Pixel*Frame)                       : 0.111% |6 \0 g8 `: Q6 Z( k, g
Stream size                              : 3.40 GiB (78%)
6 Y- ^7 i( e, s  i) f/ f  I7 JWriting library                          : x264 core 157 r2969 d4099dd
" b9 |$ K# K" E0 GEncoding settings                        : cabac=1 / ref=4 / deblock=1:-3:-3 / analyse=0x3:0x133 / me=umh / subme=9 / psy=1 / psy_rd=1.00:0.00 / mixed_ref=1 / me_range=16 / chroma_me=1 / trellis=2 / 8x8dct=1 / cqm=0 / deadzone=21,11 / fast_pskip=0 / chroma_qp_offset=-2 / threads=18 / lookahead_threads=1 / sliced_threads=0 / nr=0 / decimate=1 / interlaced=0 / bluray_compat=0 / constrained_intra=0 / bframes=3 / b_pyramid=2 / b_adapt=1 / b_bias=0 / direct=3 / weightb=1 / open_gop=0 / weightp=2 / keyint=250 / keyint_min=23 / scenecut=40 / intra_refresh=0 / rc_lookahead=40 / rc=2pass / mbtree=1 / bitrate=5326 / ratetol=1.0 / qcomp=0.60 / qpmin=0 / qpmax=69 / qpstep=4 / cplxblur=20.0 / qblur=0.5 / ip_ratio=1.40 / aq=1:1.00
6 d' v* e7 C7 o4 R1 M( QLanguage                                 : English
5 m+ u/ g2 o, _  e: }! W* {Default                                  : Yes
0 c0 t$ p! Y0 g  U, M" k) m. TForced                                   : No
. {& J; ^, I9 y- A/ S9 S% U4 {6 q7 U1 `2 A( L! B% f( a( E

. X; p8 l# V( CAudio
2 g3 p) b+ C" ^+ |ID                                       : 26 r% ~" F' W! W
Format                                   : DTS
( {" w: }- a  W- Y) _Format/Info                              : Digital Theater Systems
3 v5 {6 N$ D$ {9 l8 I0 W$ _! X# SCodec ID                                 : A_DTS: U& E7 D4 `* u; r/ I/ t6 W
Duration                                 : 1 h 31 min# l2 M' p1 C( u; N% m8 ~/ _- H/ o
Bit rate mode                            : Constant7 J. I* k5 N0 {
Bit rate                                 : 1 509 kb/s
$ t; T* F( o- ~6 D5 R: u8 t! h: g; SChannel(s)                               : 6 channels
2 R2 c( u# {1 p' z, KChannel layout                           : C L R Ls Rs LFE
! C& o3 g8 Y. F; g( L/ YSampling rate                            : 48.0 kHz
  b' Z( m0 H5 G/ C2 a  I0 yFrame rate                               : 93.750 FPS (512 SPF)
4 P; n+ U4 T) [. e: |; fBit depth                                : 24 bits
* Z3 V0 B) d) Q& L7 G5 p7 HCompression mode                         : Lossy( Z3 x1 y  q. P. O* ?" q: s8 w
Stream size                              : 988 MiB (22%)
( F9 w- N. `' ^7 W( PLanguage                                 : English* Q+ o; [) |9 _  V- R
Default                                  : Yes' K' s' k' f8 c" L" [
Forced                                   : No
% r5 h0 F# C, o& z  T% F
5 `/ {' J. H9 U8 r
$ G: }* C1 Z7 R5 M$ g$ K/ f/ r- q
Text# {. k5 k9 r, S2 F! }
ID                                       : 3
: @% i/ w! }; G: E- hFormat                                   : UTF-8
7 F! ~' x2 S- o0 a  p6 \' SCodec ID                                 : S_TEXT/UTF8
( R5 \  x' q9 o# {" A2 `3 F3 R7 |Codec ID/Info                            : UTF-8 Plain Text9 ^' d) Z9 }  W1 F- |
Duration                                 : 3 s 212 ms! K$ S4 Y- s$ `. y7 G4 b
Bit rate                                 : 109 b/s
& W( A" d* y# v+ n* O; KCount of elements                        : 1% P' i! b  \) _9 h3 j
Stream size                              : 44.0 Bytes (0%)% ~# @- w7 [; Y- E$ N7 f3 m: _5 D' I
Title                                    : English forced
3 [8 [: k' z/ P0 }Language                                 : English
) W! T7 s6 G2 o9 w3 T  W! b5 A- cDefault                                  : Yes
  [. a5 x& [! YForced                                   : Yes
+ _+ A+ M; R/ R0 L7 N: ~9 q( K8 H1 a
% c3 _3 T, W% q2 F$ W' t
0 x! j* q; a% N
Menu
" I( Z* N$ H: t* h00:00:00.000                             : en:00:00:00.0002 J: @% ^% G5 V. t( R! B3 X
00:04:49.372                             : en:00:04:49.372
& E# Z1 O3 e1 _% Y00:10:23.790                             : en:00:10:23.790
( \- e: ~" Y5 |9 U* _00:14:19.275                             : en:00:14:19.275
0 x& M" E  A- V, m5 U6 `: N00:19:25.498                             : en:00:19:25.498
. C. o9 f! m8 l+ [; v" t8 d) A00:25:11.218                             : en:00:25:11.218
1 M2 F$ t; H$ q* E; b00:29:49.413                             : en:00:29:49.413, E  Z) ^( I; ~# Y, f
00:35:50.815                             : en:00:35:50.815$ Y; r) d$ U' a
00:41:11.636                             : en:00:41:11.636
+ n1 T( `9 `3 \( y- d00:46:29.537                             : en:00:46:29.5374 C6 W- D: @# M$ Y3 i' U1 D2 ~
00:53:50.227                             : en:00:53:50.227
9 T' O% Q6 k- G3 s00:57:44.795                             : en:00:57:44.795
4 N7 j! n6 M# b+ [% Y9 U& S01:04:15.268                             : en:01:04:15.268" ]' Q5 X3 v- \- W, K; q
01:08:48.499                             : en:01:08:48.499
$ _- }$ n2 s9 \* i( b$ C01:15:20.599                             : en:01:15:20.5995 B6 p0 u0 Z  E2 [. J: L# a
01:18:50.643                             : en:01:18:50.643
' G' n( _4 Z  x4 ~: q
6 k6 U# Y& R4 ^* Y# }) ^9 ?$ s

) O6 v4 |/ k0 _. A' c% [精彩剧照
# v3 Z2 |9 Q' Z4 \7 _( R, P7 h# H
- k; `/ E. `+ L; H$ t+ W: Z4 i
' p$ h( S* Y( T. p5 j  e% l0 o1 P

精灵旅社/尖叫旅社 Hotel.Transylvania.2012.3D.1080p.BluRay.x264-REGRET 4.45GB

精灵旅社/尖叫旅社 Hotel.Transylvania.2012.3D.1080p.BluRay.x264-REGRET 4.45GB
: z& t9 S" t- d, h5 @4 h
% S  U' I( m" k

6 f7 h% M6 G' U3 a5 M( P- U% K; r/ T" S
蓝光高清网提示您  点击下方附件名称  马上开始下载
+ h. y$ O8 u5 {8 m  O, A; ^$ g% N( c; T' w& B& N
' v; O. a% l0 ~2 p) x7 l, _: Z
精灵旅社/尖叫旅社 Hotel.Transylvania.2012.3D.1080p.BluRay.x264-REGRET 4.45GB2 ^4 m- s0 T4 l, o0 I: J
Hotel.Transylvania.2012.3D.1080p.BluRay.x264-REGRET.torrent 
         (45.38 KB    阅读权限: 20)
加入蓝光高清网VIP会员  无限制下载本站所有资源---点这里

资源下载、资源播放、字幕使用、无法下载等常见问题---点这里
回复

使用道具 举报

精彩评论14

我爱高清 发表于 2020-3-11 18:45:01 来自手机 | 显示全部楼层
楼主的介绍非常好 ,感谢.
回复

使用道具 举报

雨的承诺 发表于 2020-3-20 07:10:56 | 显示全部楼层
6 W1 K2 m, r' s+ H3 Q5 Z" M& R9 B
支持蓝光高清网!
回复

使用道具 举报

knight001zf 发表于 2020-3-20 11:02:01 | 显示全部楼层
, L6 x! e+ x# |+ l9 G$ z1 @3 G
好资源,顶一个
回复

使用道具 举报

knight001zf 发表于 2020-3-22 20:06:51 | 显示全部楼层
# S8 e+ o4 o% N+ d+ V# L. p5 _
身体健康,天天开心,祝蓝光高清网越办越红火
回复

使用道具 举报

雨的承诺 发表于 2020-3-23 18:10:38 | 显示全部楼层
- ~6 r3 ?- w: \
感谢蓝光高清网提供的优质资源,希望网站越办越好。
回复

使用道具 举报

everlushen 发表于 2020-4-8 22:10:49 | 显示全部楼层
非常感谢蓝光高清网分享的各种知识和资源,祝蓝光高清网越来越好
回复

使用道具 举报

石牛河2014 发表于 2020-4-9 18:20:19 | 显示全部楼层
非常感谢蓝光高清网分享的各种知识和资源,祝蓝光高清网越来越好
回复

使用道具 举报

雨的承诺 发表于 2020-4-13 10:37:47 | 显示全部楼层
非常感谢蓝光高清网分享的各种知识和资源,祝蓝光高清网越来越好
回复

使用道具 举报

poetlong 发表于 2020-4-14 10:36:07 | 显示全部楼层

% m" y8 @6 G0 d感谢蓝光高清网提供的优质资源,希望网站越办越好。
回复

使用道具 举报

您需要登录后才可以回帖 登录 | 立即注册

本版积分规则

关注0

粉丝1

帖子83917

发布主题
最新电影 论坛
本期活动
联系我们
点击这里联系客服

服务时间:
周一到周日8:00-23:30

  • 打开微信扫一扫
    关注公众号

  • 手机QQ扫一扫
    添加客服

手机版蓝光高清网 |网站地图

Powered by Discuz! X3.4  © 2001-2013 Comsenz Inc.