游客您好
第三方账号登陆
  • 客服在线时间

    周一至周五 8:30-17:30
  • 烧友之家APP

    随时掌握烧友资讯

  • 扫描二维码

    关注微信公众号

推荐阅读
4k演示
未知星球 | 未知职业
  • 关注0
  • 粉丝0
  • 帖子775
精选帖子
开启左侧

地平线系列:太阳系的结局 Birth.Of.The.Solar.System.2017.DOCU.2160p.WEB.x264纪录片

[复制链接]
4k演示 发表于 2020-3-13 10:37:42 | 显示全部楼层 |阅读模式 打印 上一主题 下一主题
地平线系列:太阳系的结局
上映时间:2017年
类型:纪录 
地区:英国 
导演:未知
主演:未知
画质标准:4K  封装音轨:DTS-HD.MA 5.1 
豆瓣评分:8.0分
本帖最后由 4k演示 于 2020-3-13 10:38 编辑
4 S% G6 H1 C5 R
4 f) Q% ~) F7 X& Y0 Y  o简       介2 d6 c7 ]3 M# p% s5 w/ r. R* U% p
2 {5 X7 X8 |: ]

$ s( E' ?9 k+ I" N( ]  L( A  This is the story of how our solar system will be transformed by the aging sun before coming to a spectacular end in about eight billion years. Astronomers can peer into the far future to predict how it will happen by analysing distant galaxies, stars and even planets in their final moments.4 _1 `3 m* j0 ^
  In this film, Horizon brings these predictions to life in a peaceful midwestern town that has a giant scale model of the solar system spread out all over the city. As it ages, the sun will bloat into a red giant star, swallowing planets... as well as half the town. The fate of the Earth itself hangs in the balance. How will the solar system end?
; N& C! x7 B! N
# c% F3 K' P) W2 z# g5 \

6 U/ y2 u2 O; j, Y3 X影片参数
7 J5 J! ]. s/ b地平线:太阳系终结/地平线系列:太阳系的结局 Birth.Of.The.Solar.System.2017.DOCU.2160p.WEB.x264纪录片信息
6 O. b/ L8 z- e+ z+ O/ |& x  gVideo
5 U- Z( S! H+ a0 I( h% cID : 1* z8 k, M' C2 Q4 U9 y5 _( V
Format : AVC( ^  F& U" u4 g9 d2 {: k8 d
Format/Info : Advanced Video Codec
( d" @3 X# L+ |Format profile : Main@L3.1
& d2 H6 Q6 y. {* K& a" d* uFormat settings : CABAC / 4 Ref Frames& t' ]8 V- P9 A( g4 E
Format settings, CABAC : Yes2 O7 W7 ^# {6 U
Format settings, Reference frames : 4 frames
2 G3 g; x( u9 R: W, u" T! _Codec ID : V_MPEG4/ISO/AVC3 s% u4 t9 M/ D' t: A. _, ]8 m
Duration : 29 min 31 s
9 N# y% A/ u- G4 GBit rate : 18.5 Mb/s3 M+ M+ w% f8 o
Width : 3 840 pixels/ S  m' M+ g# r; X* I- p
Height : 2 160 pixels0 f! M$ w. _% _5 d2 T
Display aspect ratio : 16:9
! Q+ H& P. s6 y) ^Frame rate mode : Constant4 ?' |! V# I. {( f
Frame rate : 29.970 (30000/1001) FPS4 ?* i8 j6 [( T
Color space : YUV( ?1 ~! r0 G* P0 V9 D: k. @
Chroma subsampling : 4:2:0
  K* B8 f: e. E1 e# p, ZBit depth : 8 bits
; \6 f  y! ~7 K$ oScan type : Progressive+ `4 d4 k3 P$ D: ^
Bits/(Pixel*Frame) : 0.075. m8 C$ S+ [4 M" q1 R9 G
Stream size : 3.85 GiB (99%)8 f; C( A5 l1 H' E2 E+ e8 ]
Writing library : x264 core 148
, i# ~# S$ A" ?6 {* W: i2 EEncoding settings : cabac=1 / ref=3 / deblock=1:0:0 / analyse=0x1:0x111 / me=hex / subme=7 / psy=1 / psy_rd=1.00:0.00 / mixed_ref=1 / me_range=16 / chroma_me=1 / trellis=1 / 8x8dct=0 / cqm=0 / deadzone=21,11 / fast_pskip=1 / chroma_qp_offset=-2 / threads=48 / lookahead_threads=8 / sliced_threads=0 / nr=0 / decimate=1 / interlaced=0 / bluray_compat=0 / constrained_intra=0 / bframes=3 / b_pyramid=2 / b_adapt=1 / b_bias=0 / direct=1 / weightb=1 / open_gop=0 / weightp=2 / keyint=90 / keyint_min=9 / scenecut=0 / intra_refresh=0 / rc_lookahead=40 / rc=abr / mbtree=1 / bitrate=18523 / ratetol=1.0 / qcomp=0.60 / qpmin=0 / qpmax=69 / qpstep=4 / ip_ratio=1.40 / aq=1:1.00( C1 N- o* @  i: T3 b6 d
Default : Yes( f3 f. S1 {4 w7 ^% R
Forced : No
5 N3 e; s- O4 `' K0 ?Color range : Limited
" j7 t+ s- G3 ?0 nColor primaries : BT.709
; o, p- l4 p" P7 Z4 U+ UTransfer characteristics : BT.709
$ \1 u% e/ I6 JMatrix coefficients : BT.709
2 C6 K, `" ^/ s2 B  V+ A  u5 s
5 u' n: e! d+ y4 Y( B5 M1 v. FAudio
: u8 h- ]5 C. g# \0 u0 h* ?. \ID : 2
$ A5 ~+ d" Z' M: a/ I; fFormat : AAC LC+ e0 R8 q9 Y9 ]8 f( ?
Format/Info : Advanced Audio Codec Low Complexity. p$ A- Y' V* N6 p! R. }! m
Codec ID : A_AAC-2* U' \# n7 i* G% K
Duration : 29 min 31 s
' R  J9 k7 s# E# DBit rate : 192 kb/s
7 k4 \6 a+ F+ x# Y8 {$ VChannel(s) : 2 channels
! s3 T7 l& W8 WChannel layout : L R
; ~1 x- t3 p1 u: C/ |; ESampling rate : 44.1 kHz
) D' Y8 m$ q7 b- @' v5 g( ^4 L! YFrame rate : 43.066 FPS (1024 SPF)
: W$ A/ s8 }& JCompression mode : Lossy% t: {9 q2 {# U% X) C
Delay relative to video : -46 ms/ z! l0 [/ _, Z3 ^6 c: z, m- l
Stream size : 40.0 MiB (1%)4 b- K0 `6 C/ A9 [) K
Language : English
  L0 X4 ]. \2 Q6 ~  V! b$ \. {Default : Yes
/ e! `* O) W& B" cForced : No
+ `, l% Y5 K, {# S! z9 C
4 b- C; S$ N) x$ k7 D2 }
精彩剧照

2 Q' K, a  }- I

/ k/ ^3 W( R! `5 D

地平线系列:太阳系的结局 Birth.Of.The.Solar.System.2017.DOCU.2160p.WEB.x264纪录片

地平线系列:太阳系的结局 Birth.Of.The.Solar.System.2017.DOCU.2160p.WEB.x264纪录片

地平线系列:太阳系的结局 Birth.Of.The.Solar.System.2017.DOCU.2160p.WEB.x264纪录片

地平线系列:太阳系的结局 Birth.Of.The.Solar.System.2017.DOCU.2160p.WEB.x264纪录片

7 i5 ^! r, S' B2 k
; b! E4 Z( q9 h$ ]- P' M4 _2 c4 V4 L0 |" c: l
蓝光高清网提示您  点击下方附件名称  马上开始下载' c0 U* B9 N9 I
, V. R% ]  m! n
地平线:太阳系终结/地平线系列:太阳系的结局 Birth.Of.The.Solar.System.2017.DOCU.2160p.WEB.x264纪录片下载
: }9 ~' _$ ?6 P' P) k* S9 F# G5 X* {. v' B- x: b3 A
地平线系列:太阳系的结局 Birth.Of.The.Solar.System.2017.DOCU.2160p.WEB.x264【3.89 GB】
- _9 z5 G5 U$ c# ~4 O+ k 地平线系列:太阳系的结局 Birth.Of.The.Solar.System.2017.DOCU.2160p.WEB.x2.torren.torrent (大小:39.44 KB)
  p' z' J0 X) j4 X3 \
6 L7 b, O. U: _
地平线系列:太阳系的结局字幕下载:. ?, @. h% p9 v7 `5 W8 E9 R
BBC.Horizon.2016.The.End.of.The.Solar.System.zip (大小:356.45 KB)

$ O. u6 e4 y: N( p. o+ q/ U
回复

使用道具 举报

精彩评论4

yusong 发表于 2020-3-16 10:24:39 | 显示全部楼层

! r, ?( U/ u( S; ~) O1 [7 q& F6 e身体健康,天天开心,祝蓝光高清网越办越红火
回复 支持 反对

使用道具 举报

gdlmxia 发表于 2020-6-6 09:42:46 | 显示全部楼层
太好啦&萬分感謝版主的無私發佈分享%
回复 支持 反对

使用道具 举报

水原千鹤 发表于 2021-10-19 16:12:53 | 显示全部楼层

% x# F7 H1 E4 D( D6 w1 K9 ]太好啦&萬分感謝版主的無私發佈分享%
回复 支持 反对

使用道具 举报

水原千鹤 发表于 2021-10-19 16:13:57 | 显示全部楼层

9 H) c. k4 o% \/ o: U+ T太好啦&萬分感謝版主的無私發佈分享%
回复 支持 反对

使用道具 举报

您需要登录后才可以回帖 登录 | 立即注册

本版积分规则

烧友之家(蓝光高清网)本站内容部分由用户自主分享和转载自互联网,转载目的在于传递更多信息,并不代表本网赞同其观点和对其真实性负责。 如有侵权、违反国家法律政策行为,请联系我们,我们会第一时间及时清除和处理!
关注我们
  • 官方微信公众号
  • 扫码下载官方APP

X3.4 Licensed© 2001-2013 蓝光高清网 烧友之家APP |网站地图