李尸朝鲜
第1~2季(完结)     豆瓣评分:8.7分
  • 上映日期: 2020-03-12
  • 国家地区: 韩国
  • 字幕语言: 中文简体
  • 视频效果:超清(1920x1080)
  • 视频格式:MP4
  • 影片大小:每季共6集/每集约2 GB
    • 音轨声道:2.0声道
    • 音质编码:其他AAC


剧情简介:

         在一个充斥着贪腐和饥荒的王国中,关于国王死亡的神秘传闻沸沸扬扬,同时一场奇怪的瘟疫传播开来,感染者可获得不死之身并嗜食人肉。成为阴谋牺牲品的皇太子开始踏上揭露邪恶阴谋,拯救子民的征程...

[4K日韩剧] 李尸朝鲜-S01~S02.第1季~第二季完结 内置中文字幕 1080p AAC 2.0 1080pro.net

  [复制链接]
蓝鸟 发表于 2020-3-14 09:47:30 | 显示全部楼层 |阅读模式 打印 上一主题 下一主题
本帖最后由 蓝鸟 于 2020-3-14 10:00 编辑



影片参数
  1. General
  2. Format                         : MPEG-4
  3. Format profile                 : Base Media
  4. Codec ID                       : isom (isom/iso2/avc1/mp41)
  5. File size                      : 2.17 GiB
  6. Duration                       : 52 min 23 s
  7. Overall bit rate mode          : Variable
  8. Overall bit rate               : 5 926 kb/s
  9. Writing application            : ShanaEncoder


  10. Video
  11. ID                             : 1
  12. Format                         : AVC
  13. Format/Info                    : Advanced Video Codec
  14. Format profile                 : High@L4
  15. Format settings                : CABAC / 1 Ref Frames
  16. Format settings, CABAC         : Yes
  17. Format settings, Reference fra : 1 frame
  18. Codec ID                       : avc1
  19. Codec ID/Info                  : Advanced Video Coding
  20. Duration                       : 52 min 22 s
  21. Bit rate mode                  : Variable
  22. Bit rate                       : 5 733 kb/s
  23. Maximum bit rate               : 2 000 kb/s
  24. Width                          : 1 920 pixels
  25. Height                         : 960 pixels
  26. Display aspect ratio           : 2.000
  27. Frame rate mode                : Constant
  28. Frame rate                     : 23.976 (24000/1001) FPS
  29. Color space                    : YUV
  30. Chroma subsampling             : 4:2:0
  31. Bit depth                      : 8 bits
  32. Scan type                      : Progressive
  33. Bits/(Pixel*Frame)             : 0.130
  34. Stream size                    : 2.10 GiB (97%)
  35. Codec configuration box        : avcC


  36. Audio
  37. ID                             : 2
  38. Format                         : AAC LC
  39. Format/Info                    : Advanced Audio Codec Low Complexity
  40. Codec ID                       : mp4a-40-2
  41. Duration                       : 52 min 23 s
  42. Bit rate mode                  : Constant
  43. Bit rate                       : 192 kb/s
  44. Channel(s)                     : 2 channels
  45. Channel layout                 : L R
  46. Sampling rate                  : 48.0 kHz
  47. Frame rate                     : 46.875 FPS (1024 SPF)
  48. Compression mode               : Lossy
  49. Stream size                    : 72.0 MiB (3%)
  50. Default                        : Yes
  51. Alternate group                : 1
复制代码

精彩剧照

李尸朝鲜-第二季 内置中文字幕 1080p AAC 2.0 1080pro.net

李尸朝鲜-第二季 内置中文字幕 1080p AAC 2.0 1080pro.net

李尸朝鲜-第二季 内置中文字幕 1080p AAC 2.0 1080pro.net

李尸朝鲜-第二季 内置中文字幕 1080p AAC 2.0 1080pro.net

李尸朝鲜-第二季 内置中文字幕 1080p AAC 2.0 1080pro.net

李尸朝鲜-第二季 内置中文字幕 1080p AAC 2.0 1080pro.net

李尸朝鲜-第二季 内置中文字幕 1080p AAC 2.0 1080pro.net

李尸朝鲜-第二季 内置中文字幕 1080p AAC 2.0 1080pro.net



蓝光高清网提示您  点击下方附件名称  马上开始下载
多版本下载时请注意区分


李尸朝鲜-第一季下载 内置中文字幕 1080p AAC 2.0 1080pro.net
游客,如果您要查看本帖隐藏内容请回复


李尸朝鲜-第二季下载 内置中文字幕 1080p AAC 2.0 1080pro.net
游客,如果您要查看本帖隐藏内容请回复

加入蓝光高清网VIP会员  无限制下载本站所有资源---点这里

资源下载、资源播放、字幕使用、无法下载等常见问题---点这里
回复

使用道具 举报

精彩评论158

FЁЙɡ√、 发表于 2020-3-14 12:23:26 来自手机 | 显示全部楼层
真心不错,刚想看
回复

使用道具 举报

qq7727 发表于 2020-3-14 16:26:37 | 显示全部楼层
哦吧呀露西
回复

使用道具 举报

zxymjgs 发表于 2020-3-14 22:18:14 | 显示全部楼层
谢谢楼主分享!!!!
回复

使用道具 举报

lyy776666 发表于 2020-3-14 22:30:35 | 显示全部楼层
感谢楼主的分享。
回复

使用道具 举报

烟雨飘渺 发表于 2020-3-14 23:12:44 | 显示全部楼层
hhhhhhhhhhhhhhhhhhhhhh
回复

使用道具 举报

soso 发表于 2020-3-15 00:47:38 来自手机 | 显示全部楼层
谢谢分享
回复

使用道具 举报

紫寒秋 发表于 2020-3-15 10:48:45 | 显示全部楼层
这个电视剧拍得真不错
回复

使用道具 举报

老王 发表于 2020-3-15 11:34:53 | 显示全部楼层
非常感谢蓝光高清网分享的各种知识和资源,祝蓝光高清网越来越好
回复

使用道具 举报

ME8076 发表于 2020-3-15 13:13:40 | 显示全部楼层
怎么才能下载啊?
回复

使用道具 举报

您需要登录后才可以回帖 登录 | 立即注册

本版积分规则

关注0

粉丝1

帖子88157

发布主题
最新电影 论坛
本期活动
联系我们
点击这里联系客服

服务时间:
周一到周日8:00-23:30

  • 打开微信扫一扫
    关注公众号

  • 手机QQ扫一扫
    添加客服

手机版蓝光高清网 |网站地图

Powered by Discuz! X3.4 Licensed  © 2001-2013 Comsenz Inc.