[动物世界] 大自然:爱登保罗爷爷带你看绝妙的蛙/阿Sir看蛙蛙 Nature.Fabulous.Frogs.2014.1080p.BluRay.x264-SADPANDA 4.37GB

[复制链接]
蓝鸟 发表于 2020-3-14 10:24:29 | 显示全部楼层 |阅读模式 打印 上一主题 下一主题
大自然:爱登保罗爷爷带你看绝妙的蛙/阿Sir看蛙蛙 Nature.Fabulous.Frogs.2014.1080p.BluRay.x264-SADPANDA 4.37GB-1.jpg

译  名 大自然:爱登保罗爷爷带你看绝妙的蛙 / 阿Sir看蛙蛙(港)
片  名 Nature: Attenborough"s Fabulous Frogs
年  代 2014
产  地 英国
类  别 纪录片
语  言 英语
上映日期 2014-06-25
IMDb评分  8.6/10 from 100 users
IMDb链接  https://www.imdb.com/title/tt3760706
豆瓣评分 9.0/10 from 58 users
豆瓣链接 https://movie.douban.com/subject/25977274/
片  长 60分钟
主  演 戴维·阿滕伯勒 David Attenborough


标  签 纪录片 | BBC | 自然 | 英国 | 动物 | 2014 | DavidAttenborough | 蛙类

简  介  


  在現存的「無尾目科」物種中,共有超過5,000種不同形狀、顏色和大小的青蛙及蟾蜍。著名英國自然生物學家兼生態紀錄片製作人,人稱「 阿Sir」的大衛.艾登布祿爵士在《阿Sir看蛙蛙》中運用最尖端的科技,配合特殊拍攝手法及角度,對青蛙進行了史無前例的破天荒研究,為我們探索 青蛙的未知領域,揭示牠們生命的各個階段。


该资源信息参数
  • Video
  • ID                                       : 1
  • Format                                   : AVC
  • Format/Info                              : Advanced Video Codec
  • Format profile                           : High@L4
  • Format settings                          : CABAC / 4 Ref Frames
  • Format settings, CABAC                   : Yes
  • Format settings, Reference frames        : 4 frames
  • Codec ID                                 : V_MPEG4/ISO/AVC
  • Duration                                 : 52 min 59 s
  • Bit rate                                 : 11.2 Mb/s
  • Width                                    : 1 920 pixels
  • Height                                   : 1 080 pixels
  • Display aspect ratio                     : 16:9
  • Frame rate mode                          : Constant
  • Frame rate                               : 23.976 (23976/1000/189150) FPS
  • Color space                              : YUV
  • Chroma subsampling                       : 4:2:0
  • Bit depth                                : 8 bits
  • Scan type                                : Progressive
  • Bits/(Pixel*Frame)                       : 0.225
  • Stream size                              : 4.14 GiB (95%)
  • Writing library                          : x264 core 142 r2479 dd79a61
  • Encoding settings                        : cabac=1 / ref=4 / deblock=1:0:0 / analyse=0x3:0x133 / me=umh / subme=8 / psy=1 / psy_rd=1.00:0.00 / mixed_ref=1 / me_range=16 / chroma_me=1 / trellis=1 / 8x8dct=1 / cqm=0 / deadzone=21,11 / fast_pskip=0 / chroma_qp_offset=-2 / threads=12 / lookahead_threads=2 / sliced_threads=0 / nr=0 / decimate=1 / interlaced=0 / bluray_compat=0 / constrained_intra=0 / bframes=3 / b_pyramid=2 / b_adapt=1 / b_bias=0 / direct=1 / weightb=1 / open_gop=0 / weightp=2 / keyint=250 / keyint_min=23 / scenecut=40 / intra_refresh=0 / rc_lookahead=40 / rc=2pass / mbtree=1 / bitrate=11170 / ratetol=1.0 / qcomp=0.60 / qpmin=0 / qpmax=69 / qpstep=4 / cplxblur=20.0 / qblur=0.5 / ip_ratio=1.40 / aq=1:1.00
  • Language                                 : English
  • Default                                  : Yes
  • Forced                                   : No
  • Audio
  • ID                                       : 2
  • Format                                   : AC-3
  • Format/Info                              : Audio Coding 3
  • Commercial name                          : Dolby Digital
  • Codec ID                                 : A_AC3
  • Duration                                 : 52 min 59 s
  • Bit rate mode                            : Constant
  • Bit rate                                 : 640 kb/s
  • Channel(s)                               : 6 channels
  • Channel layout                           : L R C LFE Ls Rs
  • Sampling rate                            : 48.0 kHz
  • Frame rate                               : 31.250 FPS (1536 SPF)
  • Bit depth                                : 16 bits
  • Compression mode                         : Lossy
  • Stream size                              : 243 MiB (5%)
  • Language                                 : English
  • Service kind                             : Complete Main
  • Default                                  : Yes
  • Forced                                   : No
  • Text
  • ID                                       : 3
  • Format                                   : UTF-8
  • Codec ID                                 : S_TEXT/UTF8
  • Codec ID/Info                            : UTF-8 Plain Text
  • Duration                                 : 52 min 35 s
  • Bit rate                                 : 25 b/s
  • Count of elements                        : 559
  • Stream size                              : 9.78 KiB (0%)
  • Language                                 : English
  • Default                                  : No
  • Forced                                   : No



精彩剧照

大自然:爱登保罗爷爷带你看绝妙的蛙/阿Sir看蛙蛙 Nature.Fabulous.Frogs.2014.1080p.BluRay.x264-SADPANDA 4.37GB-2.jpg 大自然:爱登保罗爷爷带你看绝妙的蛙/阿Sir看蛙蛙 Nature.Fabulous.Frogs.2014.1080p.BluRay.x264-SADPANDA 4.37GB-3.jpg 大自然:爱登保罗爷爷带你看绝妙的蛙/阿Sir看蛙蛙 Nature.Fabulous.Frogs.2014.1080p.BluRay.x264-SADPANDA 4.37GB-4.jpg


蓝光高清网提示您 点击下方附件名称 马上开始下载

大自然:爱登保罗爷爷带你看绝妙的蛙/阿Sir看蛙蛙 Nature.Fabulous.Frogs.2014.1080p.BluRay.x264-SADPANDA 4.37GB


Nature.Fabulous.Frogs.2014.1080p.BluRay.x264-SADPANDA.torrent 
         (44.26 KB    阅读权限: 20)
加入蓝光高清网VIP会员  无限制下载本站所有资源---点这里

资源下载、资源播放、字幕使用、无法下载等常见问题---点这里
回复

使用道具 举报

精彩评论1

cxc9929 发表于 2020-6-11 08:28:59 | 显示全部楼层
这个没有看过,应该不错
回复

使用道具 举报

您需要登录后才可以回帖 登录 | 立即注册

本版积分规则

关注0

粉丝1

帖子83917

发布主题
最新电影 论坛
本期活动
联系我们
点击这里联系客服

服务时间:
周一到周日8:00-23:30

  • 打开微信扫一扫
    关注公众号

  • 手机QQ扫一扫
    添加客服

手机版蓝光高清网 |网站地图

Powered by Discuz! X3.4  © 2001-2013 Comsenz Inc.